Sei sulla pagina 1di 25

====== Assembly Free3GPVideoConverter, ver. 3.7.17.

1203 started 3/11/2012 ======


9:35:59 AM.260|01|TRC|Enter Controller()
9:35:59 AM.264|01|TRC|propMan['BaseDir'] = C:\Program Files\DVDVideoSoft\Free 3G
P Video Converter\
9:35:59 AM.264|01|TRC|before DvsMain.InitializeComponent()
9:35:59 AM.315|01|TRC|==> DvsMain.ctor
9:35:59 AM.693|01|TRC|Code objects listing: AVConverter[DVDVideoSoft.AVConverter
.AVConverterImpl], PresetEditor[DVDVideoSoft.PresetEditor.PresetEditor], Mp3TagW
riter[DVDVideoSoft.AVConverter.Mp3TagWriterImpl], AppExtender[DVDVideoSoft._3GPC
onverterAppExt.AppExtender],
9:35:59 AM.752|01|DBG|==> DvsMain::Init
9:35:59 AM.787|01|INF|AppExtender code object created (DVDVideoSoft.3GPConverter
AppExt.dll/DVDVideoSoft._3GPConverterAppExt.AppExtender)
9:35:59 AM.857|01|DBG|==> Init
9:35:59 AM.916|01|DBG|<== Main_Load
9:35:59 AM.917|01|INF|AppExtender.DoAction(ModifyForm)
9:35:59 AM.924|01|INF|CategorizedByFormatAppExt::AppExtender.DoAction(ModifyForm
)
9:36:00 AM.415|01|INF|AVConverter code object created (DVDVideoSoft.AVConverter.
dll/DVDVideoSoft.AVConverter.AVConverterImpl)
9:36:00 AM.441|01|INF|CategorizedByFormatAppExt::AppExtender.DoAction(CheckButto
nsState)
9:36:00 AM.444|01|INF|AppExtender.DoAction(OnCultureChanged)
9:36:00 AM.444|01|INF|CategorizedByFormatAppExt::AppExtender.DoAction(OnCultureC
hanged)
9:36:00 AM.667|01|INF|CategorizedByFormatAppExt::AppExtender.DoAction(CheckButto
nsState)
9:36:00 AM.690|01|DBG|<== Main_Load
9:36:00 AM.774|01|DBG|Try to CheckForUpdates()
9:36:19 AM.354|01|INF|Mp3TagWriter code object created (DVDVideoSoft.AVConverter
.dll/DVDVideoSoft.AVConverter.Mp3TagWriterImpl)
9:36:19 AM.484|01|INF|AppExtender.DoAction(CheckButtonsState)
9:36:42 AM.613|01|DBG|convertButton_Click
9:36:42 AM.632|01|DBG|Conversion items (output file names):
9:36:42 AM.632|01|DBG|
C:\Users\007laksh\Desktop\[YOUTUBE-HD-720P]-Clin
ic_Plus_-_Khushiyaan_Tvc..avi
9:36:42 AM.637|01|DBG|<== Convert()
9:36:42 AM.637|01|INF|Preset: High Quality MPEG4 (XviD, DivX compatible) / 720x5
40, 25 fps, 3 Mbps; MP3, 44.1 kHz, 256 Kbps
9:36:42 AM.658|01|DBG|==> Convert()
9:41:36 AM.396|05|INF|AppExtender.DoAction(OnItemProcessed)
9:41:36 AM.443|01|INF|Conversion was completed successfully.
9:41:37 AM.422|01|INF|Try to perform iappExtender OnAllItemsCompete action
9:41:37 AM.422|01|INF|AppExtender.DoAction(OnAllItemsCompete)
9:41:37 AM.422|01|INF|Try to perform iappExtender PostConvert action
9:41:37 AM.422|01|INF|AppExtender.DoAction(PostConvert)
9:42:36 AM.919|01|INF|AppExtender.DoAction(CheckButtonsState)
9:42:36 AM.924|01|INF|CategorizedByFormatAppExt::AppExtender.DoAction(CheckButto
nsState)
9:42:39 AM.782|01|DBG|convertButton_Click
9:42:39 AM.788|01|DBG|Conversion items (output file names):
9:42:39 AM.788|01|DBG|
C:\Users\007laksh\Desktop\[YOUTUBE-HD-720P]-Clin
ic_Plus_-_Khushiyaan_Tvc.(1).3gp
9:42:39 AM.788|01|DBG|<== Convert()
9:42:39 AM.788|01|INF|Preset: Mobile H263 High Quality / 352x288, H.263, 15 fps,
320 Kbps; AMR, 8 kHz, 122 Kbps, Mono
9:42:39 AM.789|01|DBG|==> Convert()
9:44:46 AM.419|05|INF|AppExtender.DoAction(OnItemProcessed)
9:44:46 AM.420|01|INF|Conversion was completed successfully.

9:44:47 AM.286|01|INF|Try to perform iappExtender OnAllItemsCompete action


9:44:47 AM.286|01|INF|AppExtender.DoAction(OnAllItemsCompete)
9:44:47 AM.286|01|INF|Try to perform iappExtender PostConvert action
9:44:47 AM.286|01|INF|AppExtender.DoAction(PostConvert)
9:46:23 AM.450|01|INF|AppExtender.DoAction(SaveState)
9:46:25 AM.159|01|TRC|DvsMain.Dispose(True)
o convert: yes
[VC] OutputVideoFormat: 1, 1, 720, 540, 25.000000, 3000000
[VC] OutputAudioFormat: 1, 256000, 44100, 2
[VC] OutTimeInterval: 0.000000, -1.000000
[VC] Corrected videoOutputWidth: 720, videoOutputHeight: 540
"C:\Program Files\Common Files\DVDVideoSoft\Dll\\ffmpeg.exe" -y -i "E:\Movies\vi
de0s\[YOUTUBE-HD-720P]-Clinic_Plus_-_Khushiyaan_Tvc..mp4" -map 0:0 -map 0:1 -ss
0.00 -vcodec msmpeg4v2 -r 25.000000 -s 720x540 -b 3000000 -aspect 4:3 -acodec li
bmp3lame -ab 256000 -ar 44100 -ac 2 -f avi "C:\Users\007laksh\Desktop\[YOUTUBE-H
D-720P]-Clinic_Plus_-_Khushiyaan_Tvc..avi"
FFmpeg version r21343-www.DVDVideoSoft.com, Copyright (c) 2000-2010 Fabrice Bell
ard, et al.
built on Feb 2 2010 17:23:32 with gcc 4.2.4
libavutil
50. 7. 0 / 50. 7. 0
libavcodec
52.48. 0 / 52.48. 0
libavformat 52.47. 0 / 52.47. 0
libavdevice 52. 2. 0 / 52. 2. 0
libavfilter
1.17. 0 / 1.17. 0
libswscale
0. 8. 0 / 0. 8. 0
libpostproc 51. 2. 0 / 51. 2. 0
Seems stream 0 codec frame rate differs from container frame rate: 50.00 (50/1)
-> 25.00 (25/1)
Input #0, mov,mp4,m4a,3gp,3g2,mj2, from 'E:\Movies\vide0s\[YOUTUBE-HD-720P]-Clin
ic_Plus_-_Khushiyaan_Tvc..mp4':
Metadata:
major_brand
: mp42
minor_version : 0
compatible_brands: isommp42
Duration: 00:02:41.40, start: 0.000000, bitrate: 1586 kb/s
Stream #0.0(und): Video: h264, yuv420p, 960x720, 1435 kb/s, 25 fps, 25 tbr,
50 tbn, 50 tbc
Stream #0.1(und): Audio: aac, 44100 Hz, stereo, s16, 148 kb/s
Output #0, avi, to 'C:\Users\007laksh\Desktop\[YOUTUBE-HD-720P]-Clinic_Plus_-_Kh
ushiyaan_Tvc..avi':
Stream #0.0(und): Video: msmpeg4v2, yuv420p, 720x540 [PAR 1:1 DAR 4:3], q=231, 3000 kb/s, 25 tbn, 25 tbc
Stream #0.1(und): Audio: libmp3lame, 44100 Hz, stereo, s16, 256 kb/s
Stream mapping:
Stream #0.0 -> #0.0
Stream #0.1 -> #0.1
Press [q] to stop encoding
frame=Convert
[VC]
11 fps=
Success
0 q=2.0 size=
10kB time=0.44 bitrate= 181.6kbits/s
[VC] [v08.02.2010] In Open(E:\Movies\vide0s\[YOUTUBE-HD-720P]-Clinic_Plus_-_Khus
hiyaan_Tvc..mp4)
[VC] FileFormat: mov,mp4,m4a,3gp,3g2,mj2, 161.400000
[VC] Video: h264, 1435723, 960x720, 50.000000
[VC] Audio: aac, 148363, 44100, 2
[VC] Title: Artist: Album: Year: 0 Track: 0
[VC] Out Open = S_OK
[VC] Set output video format, input stream id: 0, id: 0, index: 0, format type:

3, width: 1073742176, height: 288, bit rate: 320000, frame rate: 15.000000, pixe
l format: 0, native format type: 0.
[VC] Set output audio format, input stream id: 1, id: 0, index: 0, format type:
3, bit rate: 12200, sample rate: 8000, channels: 1, sample format: 0, native for
mat type: 0.
[VC] [v09.06.2010] Save C:\Users\007laksh\Desktop\[YOUTUBE-HD-720P]-Clinic_Plus_
-_Khushiyaan_Tvc.(1).3gp
[VC] Input audio and video streams: 1, 1. Extended output audio and video stream
s: 1, 1
[VC] Extended regime to convert: yes
[VC] OutputVideoFormat: 1, 3, 352, 288, 15.000000, 320000
[VC] OutputAudioFormat: 3, 12200, 8000, 1
[VC] OutTimeInterval: 0.000000, -1.000000
[VC] Corrected videoOutputWidth: 352, videoOutputHeight: 264
"C:\Program Files\Common Files\DVDVideoSoft\Dll\\ffmpeg.exe" -y -i "E:\Movies\vi
de0s\[YOUTUBE-HD-720P]-Clinic_Plus_-_Khushiyaan_Tvc..mp4" -map 0:0 -map 0:1 -ss
0.00 -vcodec h263 -r 15.000000 -padtop 12 -padbottom 12 -s 352x264 -b 320000 -as
pect 11:9 -acodec libopencore_amrnb -ab 12200 -ar 8000 -ac 1 -f 3gp "C:\Users\00
7laksh\Desktop\[YOUTUBE-HD-720P]-Clinic_Plus_-_Khushiyaan_Tvc.(1).3gp"
FFmpeg version r21343-www.DVDVideoSoft.com, Copyright (c) 2000-2010 Fabrice Bell
ard, et al.
built on Feb 2 2010 17:23:32 with gcc 4.2.4
libavutil
50. 7. 0 / 50. 7. 0
libavcodec
52.48. 0 / 52.48. 0
libavformat 52.47. 0 / 52.47. 0
libavdevice 52. 2. 0 / 52. 2. 0
libavfilter
1.17. 0 / 1.17. 0
libswscale
0. 8. 0 / 0. 8. 0
libpostproc 51. 2. 0 / 51. 2. 0
Seems stream 0 codec frame rate differs from container frame rate: 50.00 (50/1)
-> 25.00 (25/1)
Input #0, mov,mp4,m4a,3gp,3g2,mj2, from 'E:\Movies\vide0s\[YOUTUBE-HD-720P]-Clin
ic_Plus_-_Khushiyaan_Tvc..mp4':
Metadata:
major_brand
: mp42
minor_version : 0
compatible_brands: isommp42
Duration: 00:02:41.40, start: 0.000000, bitrate: 1586 kb/s
Stream #0.0(und): Video: h264, yuv420p, 960x720, 1435 kb/s, 25 fps, 25 tbr,
50 tbn, 50 tbc
Stream #0.1(und): Audio: aac, 44100 Hz, stereo, s16, 148 kb/s
Output #0, 3gp, to 'C:\Users\007laksh\Desktop\[YOUTUBE-HD-720P]-Clinic_Plus_-_Kh
ushiyaan_Tvc.(1).3gp':
Stream #0.0(und): Video: h263, yuv420p, 352x288 [PAR 1:1 DAR 11:9], q=2-31,
320 kb/s, 15 tbn, 15 tbc
Stream #0.1(und): Audio: libopencore_amrnb, 8000 Hz, 1 channels, s16, 12 kb/
s
Stream mapping:
Stream #0.0 -> #0.0
Stream #0.1 -> #0.1
Press [q] to stop encoding
frame= 13 fps= 0 q=1.6 size=
4kB time=0.48 bitrate= 63.0kbits/s dup=0
[VC] Convert Success
drop=7

====== Assembly Free3GPVideoConverter, ver. 3.7.17.1203 started 3/11/2012 ======


6:47:51 PM.044|01|TRC|Enter Controller()
6:47:51 PM.044|01|TRC|propMan['BaseDir'] = C:\Program Files\DVDVideoSoft\Free 3G
P Video Converter\
6:47:51 PM.044|01|TRC|before DvsMain.InitializeComponent()
6:47:51 PM.107|01|TRC|==> DvsMain.ctor
6:47:51 PM.450|01|TRC|Code objects listing: AVConverter[DVDVideoSoft.AVConverter
.AVConverterImpl], PresetEditor[DVDVideoSoft.PresetEditor.PresetEditor], Mp3TagW
riter[DVDVideoSoft.AVConverter.Mp3TagWriterImpl], AppExtender[DVDVideoSoft._3GPC
onverterAppExt.AppExtender],
6:47:51 PM.559|01|DBG|==> DvsMain::Init
6:47:51 PM.637|01|INF|AppExtender code object created (DVDVideoSoft.3GPConverter
AppExt.dll/DVDVideoSoft._3GPConverterAppExt.AppExtender)
6:47:51 PM.668|01|DBG|==> Init
6:47:51 PM.746|01|DBG|<== Main_Load
6:47:51 PM.746|01|INF|AppExtender.DoAction(ModifyForm)
6:47:51 PM.746|01|INF|CategorizedByFormatAppExt::AppExtender.DoAction(ModifyForm
)
6:47:52 PM.916|01|INF|AVConverter code object created (DVDVideoSoft.AVConverter.
dll/DVDVideoSoft.AVConverter.AVConverterImpl)
6:47:52 PM.948|01|INF|CategorizedByFormatAppExt::AppExtender.DoAction(CheckButto
nsState)
6:47:52 PM.948|01|INF|AppExtender.DoAction(OnCultureChanged)
6:47:52 PM.948|01|INF|CategorizedByFormatAppExt::AppExtender.DoAction(OnCultureC
hanged)
6:47:53 PM.197|01|INF|CategorizedByFormatAppExt::AppExtender.DoAction(CheckButto
nsState)
6:47:53 PM.228|01|DBG|<== Main_Load
6:47:53 PM.322|01|DBG|Try to CheckForUpdates()
6:48:11 PM.200|01|INF|AppExtender.DoAction(SaveState)
6:48:11 PM.200|01|TRC|DvsMain.Dispose(True)
====== Assembly Free3GPVideoConverter, ver. 3.7.17.1203 started 3/12/2012 ======
5:27:36 PM.289|01|TRC|Enter Controller()
5:27:36 PM.289|01|TRC|propMan['BaseDir'] = C:\Program Files\DVDVideoSoft\Free 3G
P Video Converter\
5:27:36 PM.289|01|TRC|before DvsMain.InitializeComponent()
5:27:36 PM.335|01|TRC|==> DvsMain.ctor
5:27:36 PM.710|01|TRC|Code objects listing: AVConverter[DVDVideoSoft.AVConverter
.AVConverterImpl], PresetEditor[DVDVideoSoft.PresetEditor.PresetEditor], Mp3TagW
riter[DVDVideoSoft.AVConverter.Mp3TagWriterImpl], AppExtender[DVDVideoSoft._3GPC
onverterAppExt.AppExtender],
5:27:36 PM.788|01|DBG|==> DvsMain::Init
5:27:36 PM.850|01|INF|AppExtender code object created (DVDVideoSoft.3GPConverter
AppExt.dll/DVDVideoSoft._3GPConverterAppExt.AppExtender)
5:27:36 PM.866|01|DBG|==> Init
5:27:36 PM.944|01|DBG|<== Main_Load
5:27:36 PM.944|01|INF|AppExtender.DoAction(ModifyForm)
5:27:36 PM.959|01|INF|CategorizedByFormatAppExt::AppExtender.DoAction(ModifyForm
)
5:27:37 PM.786|01|INF|AVConverter code object created (DVDVideoSoft.AVConverter.
dll/DVDVideoSoft.AVConverter.AVConverterImpl)
5:27:37 PM.833|01|INF|CategorizedByFormatAppExt::AppExtender.DoAction(CheckButto
nsState)
5:27:37 PM.833|01|INF|AppExtender.DoAction(OnCultureChanged)
5:27:37 PM.833|01|INF|CategorizedByFormatAppExt::AppExtender.DoAction(OnCultureC
hanged)
5:27:38 PM.067|01|INF|CategorizedByFormatAppExt::AppExtender.DoAction(CheckButto
nsState)

5:27:38 PM.098|01|DBG|<== Main_Load


5:27:38 PM.207|01|DBG|Try to CheckForUpdates()
5:28:01 PM.030|01|INF|AppExtender.DoAction(CheckButtonsState)
5:28:01 PM.046|01|INF|CategorizedByFormatAppExt::AppExtender.DoAction(CheckButto
nsState)
5:28:13 PM.931|01|INF|Mp3TagWriter code object created (DVDVideoSoft.AVConverter
.dll/DVDVideoSoft.AVConverter.Mp3TagWriterImpl)
5:28:14 PM.087|01|INF|AppExtender.DoAction(CheckButtonsState)
5:28:16 PM.193|01|DBG|convertButton_Click
5:28:16 PM.256|01|DBG|Conversion items (output file names):
5:28:16 PM.256|01|DBG|
C:\Users\007laksh\Desktop\[YOUTUBE-HD-720P]-Clin
ic_Plus_-_Khushiyaan_Tvc..3gp
5:28:16 PM.256|01|DBG|<== Convert()
5:28:16 PM.256|01|INF|Preset: Mobile H263 Standart Quality / 176x144, H.263, 12
fps, 160 Kbps; AMR, 8 kHz, 122 Kbps, Mono
5:28:16 PM.271|01|DBG|==> Convert()
5:29:55 PM.862|05|INF|AppExtender.DoAction(OnItemProcessed)
5:29:55 PM.893|01|INF|Conversion was completed successfully.
5:29:56 PM.954|01|INF|Try to perform iappExtender OnAllItemsCompete action
5:29:56 PM.954|01|INF|AppExtender.DoAction(OnAllItemsCompete)
5:29:56 PM.954|01|INF|Try to perform iappExtender PostConvert action
5:29:56 PM.954|01|INF|AppExtender.DoAction(PostConvert)
5:30:08 PM.081|01|INF|PresetEditor code object created (DVDVideoSoft.PresetEdito
r.dll/DVDVideoSoft.PresetEditor.PresetEditor)
5:30:13 PM.853|01|INF|AppExtender.DoAction(SaveState)
5:30:13 PM.962|01|TRC|DvsMain.Dispose(True)
Khushiyaan_Tvc..mp4)
[VC] FileFormat: mov,mp4,m4a,3gp,3g2,mj2, 161.400000
[VC] Video: h264, 1435723, 960x720, 50.000000
[VC] Audio: aac, 148363, 44100, 2
[VC] Title: Artist: Album: Year: 0 Track: 0
[VC] Out Open = S_OK
[VC] Set output video format, input stream id: 0, id: 0, index: 0, format type:
3, width: 1073742000, height: 144, bit rate: 160000, frame rate: 12.000000, pixe
l format: 0, native format type: 0.
[VC] Set output audio format, input stream id: 1, id: 0, index: 0, format type:
3, bit rate: 12200, sample rate: 8000, channels: 1, sample format: 0, native for
mat type: 0.
[VC] [v09.06.2010] Save C:\Users\007laksh\Desktop\[YOUTUBE-HD-720P]-Clinic_Plus_
-_Khushiyaan_Tvc..3gp
[VC] Input audio and video streams: 1, 1. Extended output audio and video stream
s: 1, 1
[VC] Extended regime to convert: yes
[VC] OutputVideoFormat: 1, 3, 176, 144, 12.000000, 160000
[VC] OutputAudioFormat: 3, 12200, 8000, 1
[VC] OutTimeInterval: 0.000000, -1.000000
[VC] Corrected videoOutputWidth: 176, videoOutputHeight: 132
"C:\Program Files\Common Files\DVDVideoSoft\Dll\\ffmpeg.exe" -y -i "E:\Movies\vi
de0s\[YOUTUBE-HD-720P]-Clinic_Plus_-_Khushiyaan_Tvc..mp4" -map 0:0 -map 0:1 -ss
0.00 -vcodec h263 -r 12.000000 -padtop 6 -padbottom 6 -s 176x132 -b 160000 -aspe
ct 11:9 -acodec libopencore_amrnb -ab 12200 -ar 8000 -ac 1 -f 3gp "C:\Users\007l
aksh\Desktop\[YOUTUBE-HD-720P]-Clinic_Plus_-_Khushiyaan_Tvc..3gp"
FFmpeg version r21343-www.DVDVideoSoft.com, Copyright (c) 2000-2010 Fabrice Bell
ard, et al.
built on Feb 2 2010 17:23:32 with gcc 4.2.4
libavutil
50. 7. 0 / 50. 7. 0

libavcodec
libavformat
libavdevice
libavfilter
libswscale
libpostproc

52.48.
52.47.
52. 2.
1.17.
0. 8.
51. 2.

0
0
0
0
0
0

/
/
/
/
/
/

52.48.
52.47.
52. 2.
1.17.
0. 8.
51. 2.

0
0
0
0
0
0

Seems stream 0 codec frame rate differs from container frame rate: 50.00 (50/1)
-> 25.00 (25/1)
Input #0, mov,mp4,m4a,3gp,3g2,mj2, from 'E:\Movies\vide0s\[YOUTUBE-HD-720P]-Clin
ic_Plus_-_Khushiyaan_Tvc..mp4':
Metadata:
major_brand
: mp42
minor_version : 0
compatible_brands: isommp42
Duration: 00:02:41.40, start: 0.000000, bitrate: 1586 kb/s
Stream #0.0(und): Video: h264, yuv420p, 960x720, 1435 kb/s, 25 fps, 25 tbr,
50 tbn, 50 tbc
Stream #0.1(und): Audio: aac, 44100 Hz, stereo, s16, 148 kb/s
Output #0, 3gp, to 'C:\Users\007laksh\Desktop\[YOUTUBE-HD-720P]-Clinic_Plus_-_Kh
ushiyaan_Tvc..3gp':
Stream #0.0(und): Video: h263, yuv420p, 176x144 [PAR 1:1 DAR 11:9], q=2-31,
160 kb/s, 12 tbn, 12 tbc
Stream #0.1(und): Audio: libopencore_amrnb, 8000 Hz, 1 channels, s16, 12 kb/
s
Stream mapping:
Stream #0.0 -> #0.0
Stream #0.1 -> #0.1
Press [q] to stop encoding
frame= 14 fps= 0 q=2.0 size=
2kB time=0.96 bitrate= 20.4kbits/s dup=0
[VC] Convert Success
drop=12

====== Assembly Free3GPVideoConverter, ver. 3.7.17.1203 started 3/15/2012 ======


10:23:45 PM.775|01|TRC|Enter Controller()
10:23:45 PM.775|01|TRC|propMan['BaseDir'] = C:\Program Files\DVDVideoSoft\Free 3
GP Video Converter\
10:23:45 PM.775|01|TRC|before DvsMain.InitializeComponent()
10:23:45 PM.838|01|TRC|==> DvsMain.ctor
10:23:46 PM.493|01|TRC|Code objects listing: AVConverter[DVDVideoSoft.AVConverte
r.AVConverterImpl], PresetEditor[DVDVideoSoft.PresetEditor.PresetEditor], Mp3Tag
Writer[DVDVideoSoft.AVConverter.Mp3TagWriterImpl], AppExtender[DVDVideoSoft._3GP
ConverterAppExt.AppExtender],
10:23:46 PM.587|01|DBG|==> DvsMain::Init
10:23:46 PM.665|01|INF|AppExtender code object created (DVDVideoSoft.3GPConverte
rAppExt.dll/DVDVideoSoft._3GPConverterAppExt.AppExtender)
10:23:46 PM.711|01|DBG|==> Init
10:23:46 PM.805|01|DBG|<== Main_Load
10:23:46 PM.805|01|INF|AppExtender.DoAction(ModifyForm)
10:23:46 PM.821|01|INF|CategorizedByFormatAppExt::AppExtender.DoAction(ModifyFor
m)
10:23:48 PM.022|01|INF|AVConverter code object created (DVDVideoSoft.AVConverter
.dll/DVDVideoSoft.AVConverter.AVConverterImpl)
10:23:48 PM.053|01|INF|CategorizedByFormatAppExt::AppExtender.DoAction(CheckButt
onsState)
10:23:48 PM.053|01|INF|AppExtender.DoAction(OnCultureChanged)
10:23:48 PM.053|01|INF|CategorizedByFormatAppExt::AppExtender.DoAction(OnCulture
Changed)
10:23:48 PM.334|01|INF|CategorizedByFormatAppExt::AppExtender.DoAction(CheckButt

onsState)
10:23:48 PM.412|01|DBG|<== Main_Load
10:23:48 PM.537|01|DBG|Try to CheckForUpdates()
10:24:24 PM.682|01|INF|AppExtender.DoAction(SaveState)
10:24:24 PM.698|01|TRC|DvsMain.Dispose(True)
onverter.Mp3TagWriterImpl)
10:24:01 PM.485|01|INF|AppExtender.DoAction(CheckButtonsState)
10:24:04 PM.917|01|INF|AppExtender.DoAction(CheckButtonsState)
10:24:04 PM.917|01|INF|CategorizedByFormatAppExt::AppExtender.DoAction(CheckButt
onsState)
10:24:14 PM.729|01|DBG|convertButton_Click
10:24:14 PM.760|01|DBG|Conversion items (output file names):
10:24:14 PM.760|01|DBG|
C:\Users\007laksh\Desktop\Namaste London.mp4
10:24:14 PM.776|01|DBG|<== Convert()
10:24:14 PM.776|01|INF|Preset: iPod Touch High Quality / 480x320, H.264, 30 fps,
2.5 Mbps; AAC, 48 kHz, 160 Kbps
10:24:14 PM.792|01|DBG|==> Convert()
10:24:20 PM.220|05|INF|worker.CancellationPending is true, cancel the task
10:24:23 PM.028|01|INF|AppExtender.DoAction(SaveState)
10:24:23 PM.075|01|TRC|DvsMain.Dispose(True)
100, 2
[VC] Title: Artist: Album: Year: 0 Track: 0
[VC] Out Open = S_OK
[VC] [v08.02.2010] In Open(E:\Movies\Hindi\Namaste London.divx)
[VC] FileFormat: avi, 7885.940000
[VC] Video: mpeg4, 0, 720x576, 30000.000000
[VC] Audio: mp3, 128000, 44100, 2
[VC] Title: Artist: Album: Year: 0 Track: 0
[VC] Out Open = S_OK
[VC] Set output video format, input stream id: 0, id: 0, index: 0, format type:
21, width: 1073742304, height: 320, bit rate: 2500000, frame rate: 30.000000, pi
xel format: 0, native format type: 0.
[VC] Set output audio format, input stream id: 1, id: 0, index: 0, format type:
0, bit rate: 160000, sample rate: 48000, channels: 2, sample format: 0, native f
ormat type: 0.
[VC] [v09.06.2010] Save C:\Users\007laksh\Desktop\Namaste London.mp4
[VC] Input audio and video streams: 1, 1. Extended output audio and video stream
s: 1, 1
[VC] Extended regime to convert: yes
[VC] OutputVideoFormat: 1, 21, 480, 320, 30.000000, 2500000
[VC] OutputAudioFormat: 0, 160000, 48000, 2
[VC] OutTimeInterval: 0.000000, -1.000000
[VC] Corrected videoOutputWidth: 400, videoOutputHeight: 320
"C:\Program Files\Common Files\DVDVideoSoft\Dll\\ffmpeg.exe" -y -i "E:\Movies\Hi
ndi\Namaste London.divx" -map 0:0 -map 0:1 -ss 0.00 -vcodec libx264 -level 30 -f
lags2 mixed_refs -me_method umh -partitions +parti4x4+parti8x8+partp4x4+partp8x8
+partb8x8 -refs 2 -trellis 2 -subq 7 -brd_scale 1 -me_range 16 -qmin 10 -qmax 51
-keyint_min 25 -qcomp 0.6 -r 30.000000 -padleft 40 -padright 40 -s 400x320 -b 2
500000 -aspect 3:2 -acodec libfaac -ab 160000 -ar 48000 -ac 2 -f mp4 -threads 5
"C:\Users\007laksh\Desktop\Namaste London.mp4"
FFmpeg version r21343-www.DVDVideoSoft.com, Copyright (c) 2000-2010 Fabrice Bell
ard, et al.
built on Feb 2 2010 17:23:32 with gcc 4.2.4
libavutil
50. 7. 0 / 50. 7. 0
libavcodec
52.48. 0 / 52.48. 0
libavformat 52.47. 0 / 52.47. 0

libavdevice 52. 2. 0 / 52. 2. 0


libavfilter
1.17. 0 / 1.17. 0
libswscale
0. 8. 0 / 0. 8. 0
libpostproc 51. 2. 0 / 51. 2. 0
[NULL @ 0x136ec00]Invalid and inefficient vfw-avi packed B frames detected
Seems stream 0 codec frame rate differs from container frame rate: 30000.00 (300
00/1) -> 25.00 (25/1)
Input #0, avi, from 'E:\Movies\Hindi\Namaste London.divx':
Duration: 02:11:25.94, start: 0.000000, bitrate: 1638 kb/s
Stream #0.0: Video: mpeg4, yuv420p, 720x576 [PAR 1:1 DAR 5:4], 25 fps, 25 tb
r, 25 tbn, 30k tbc
Stream #0.1: Audio: mp3, 44100 Hz, 2 channels, s16, 128 kb/s
[libx264 @ 0x149df90]using SAR=1/1
[libx264 @ 0x149df90]using cpu capabilities: MMX2 SSE2Fast SSSE3 FastShuffle SSE
4.2
[libx264 @ 0x149df90]profile Baseline, level 3.0
Output #0, mp4, to 'C:\Users\007laksh\Desktop\Namaste London.mp4':
Stream #0.0: Video: libx264, yuv420p, 480x320 [PAR 1:1 DAR 3:2], q=10-51, 25
00 kb/s, 30 tbn, 30 tbc
Stream #0.1: Audio: aac, 48000 Hz, 2 channels, s16, 160 kb/s
Stream mapping:
Stream #0.0 -> #0.0
Stream #0.1 -> #0.1
Press [q] to stop encoding
[mpeg4 @ 0x136ec00]Invalid and inefficient vfw-avi packed B frames detected
frame= 15 fps= 0 q=10.0 size=
[VC]
82kB time=0.27 bitrate=2522.2kbits/s
Cancel

====== Assembly Free3GPVideoConverter, ver. 3.7.17.1203 started 3/29/2012 ======


10:55:50 PM.762|01|TRC|Enter Controller()
10:55:50 PM.778|01|TRC|propMan['BaseDir'] = C:\Program Files\DVDVideoSoft\Free 3
GP Video Converter\
10:55:50 PM.778|01|TRC|before DvsMain.InitializeComponent()
10:55:51 PM.121|01|TRC|==> DvsMain.ctor
10:55:52 PM.868|01|TRC|Code objects listing: AVConverter[DVDVideoSoft.AVConverte
r.AVConverterImpl], PresetEditor[DVDVideoSoft.PresetEditor.PresetEditor], Mp3Tag
Writer[DVDVideoSoft.AVConverter.Mp3TagWriterImpl], AppExtender[DVDVideoSoft._3GP
ConverterAppExt.AppExtender],
10:55:53 PM.274|01|DBG|==> DvsMain::Init
10:55:53 PM.680|01|INF|AppExtender code object created (DVDVideoSoft.3GPConverte
rAppExt.dll/DVDVideoSoft._3GPConverterAppExt.AppExtender)
10:55:53 PM.789|01|DBG|==> Init
10:55:54 PM.101|01|DBG|<== Main_Load
10:55:54 PM.101|01|INF|AppExtender.DoAction(ModifyForm)
10:55:54 PM.101|01|INF|CategorizedByFormatAppExt::AppExtender.DoAction(ModifyFor
m)
10:55:57 PM.377|01|INF|AVConverter code object created (DVDVideoSoft.AVConverter
.dll/DVDVideoSoft.AVConverter.AVConverterImpl)
10:55:57 PM.502|01|INF|CategorizedByFormatAppExt::AppExtender.DoAction(CheckButt
onsState)
10:55:57 PM.502|01|INF|AppExtender.DoAction(OnCultureChanged)
10:55:57 PM.502|01|INF|CategorizedByFormatAppExt::AppExtender.DoAction(OnCulture
Changed)
10:55:57 PM.892|01|INF|CategorizedByFormatAppExt::AppExtender.DoAction(CheckButt
onsState)
10:55:58 PM.110|01|DBG|<== Main_Load
10:55:58 PM.360|01|DBG|Try to CheckForUpdates()

10:56:12 PM.306|01|INF|Mp3TagWriter code object created (DVDVideoSoft.AVConverte


r.dll/DVDVideoSoft.AVConverter.Mp3TagWriterImpl)
10:56:12 PM.478|01|INF|AppExtender.DoAction(CheckButtonsState)
10:56:15 PM.785|01|INF|AppExtender.DoAction(CheckButtonsState)
10:56:15 PM.801|01|INF|CategorizedByFormatAppExt::AppExtender.DoAction(CheckButt
onsState)
10:56:28 PM.936|01|DBG|convertButton_Click
10:56:28 PM.983|01|DBG|Conversion items (output file names):
10:56:28 PM.983|01|DBG|
C:\Users\007laksh\Desktop\Puss.In.Boots.2011.720
p.BluRay.x264.DTS-HDChina.avi
10:56:28 PM.998|01|DBG|<== Convert()
10:56:28 PM.998|01|INF|Preset: High Quality MPEG4 (XviD, DivX compatible) / 720x
540, 25 fps, 3 Mbps; MP3, 44.1 kHz, 256 Kbps
10:56:29 PM.232|01|DBG|==> Convert()
10:58:55 PM.092|05|INF|worker.CancellationPending is true, cancel the task
10:59:00 PM.818|01|INF|AppExtender.DoAction(CheckButtonsState)
10:59:00 PM.927|01|INF|AppExtender.DoAction(CheckButtonsState)
10:59:02 PM.222|01|INF|AppExtender.DoAction(SaveState)
10:59:02 PM.237|01|TRC|DvsMain.Dispose(True)
534000
[VC] Video: h264, 0, 1280x544, 47.952048
[VC] Audio: dca, 0, 48000, 6
[VC] Title: Artist: Album: Year: 0 Track: 0
[VC] Out Open = S_OK
[VC] [v08.02.2010] In Open(E:\Movies\Animation\Puss.In.Boots.2011.720p.BluRay.x2
64.DTS-HDChina\Puss.In.Boots.2011.720p.BluRay.x264.DTS-HDChina.mkv)
[VC] FileFormat: matroska, 5414.534000
[VC] Video: h264, 0, 1280x544, 47.952048
[VC] Audio: dca, 0, 48000, 6
[VC] Title: Artist: Album: Year: 0 Track: 0
[VC] Out Open = S_OK
[VC] Set output video format, input stream id: 0, id: 0, index: 0, format type:
1, width: 1073742544, height: 540, bit rate: 3000000, frame rate: 25.000000, pix
el format: 0, native format type: 0.
[VC] Set output audio format, input stream id: 1, id: 0, index: 0, format type:
1, bit rate: 256000, sample rate: 44100, channels: 2, sample format: 0, native f
ormat type: 0.
[VC] [v09.06.2010] Save C:\Users\007laksh\Desktop\Puss.In.Boots.2011.720p.BluRay
.x264.DTS-HDChina.avi
[VC] Input audio and video streams: 1, 1. Extended output audio and video stream
s: 1, 1
[VC] Extended regime to convert: yes
[VC] OutputVideoFormat: 1, 1, 720, 540, 25.000000, 3000000
[VC] OutputAudioFormat: 1, 256000, 44100, 2
[VC] OutTimeInterval: 0.000000, -1.000000
[VC] Corrected videoOutputWidth: 720, videoOutputHeight: 306
"C:\Program Files\Common Files\DVDVideoSoft\Dll\\ffmpeg.exe" -y -i "E:\Movies\An
imation\Puss.In.Boots.2011.720p.BluRay.x264.DTS-HDChina\Puss.In.Boots.2011.720p.
BluRay.x264.DTS-HDChina.mkv" -map 0:0 -map 0:1 -ss 0.00 -vcodec msmpeg4v2 -r 25.
000000 -padtop 116 -padbottom 118 -s 720x306 -b 3000000 -aspect 4:3 -acodec libm
p3lame -ab 256000 -ar 44100 -ac 2 -f avi "C:\Users\007laksh\Desktop\Puss.In.Boot
s.2011.720p.BluRay.x264.DTS-HDChina.avi"
FFmpeg version r21343-www.DVDVideoSoft.com, Copyright (c) 2000-2010 Fabrice Bell
ard, et al.
built on Feb 2 2010 17:23:32 with gcc 4.2.4
libavutil
50. 7. 0 / 50. 7. 0

libavcodec
52.48. 0 / 52.48. 0
libavformat 52.47. 0 / 52.47. 0
libavdevice 52. 2. 0 / 52. 2. 0
libavfilter
1.17. 0 / 1.17. 0
libswscale
0. 8. 0 / 0. 8. 0
libpostproc 51. 2. 0 / 51. 2. 0
[matroska @ 0x9ad370]Unknown/unsupported CodecID S_HDMV/PGS.
Last message repeated 1 times
[matroska @ 0x9ad370]MAX_READ_SIZE:5000000 reached
[matroska @ 0x9ad370]Estimating duration from bitrate, this may be inaccurate
Seems stream 0 codec frame rate differs from container frame rate: 47.95 (48000/
1001) -> 23.98 (24000/1001)
Input #0, matroska, from 'E:\Movies\Animation\Puss.In.Boots.2011.720p.BluRay.x26
4.DTS-HDChina\Puss.In.Boots.2011.720p.BluRay.x264.DTS-HDChina.mkv':
Duration: 01:30:14.53, start: 0.000000, bitrate: N/A
Stream #0.0(eng): Video: h264, yuv420p, 1280x544, PAR 1:1 DAR 40:17, 47.62 f
ps, 23.98 tbr, 1k tbn, 47.95 tbc
Stream #0.1(eng): Audio: dca, 48000 Hz, 6 channels, s16
Stream #0.2(eng): Subtitle: 0x0000
Stream #0.3(eng): Subtitle: 0x0000
Output #0, avi, to 'C:\Users\007laksh\Desktop\Puss.In.Boots.2011.720p.BluRay.x26
4.DTS-HDChina.avi':
Stream #0.0(eng): Video: msmpeg4v2, yuv420p, 720x540 [PAR 1:1 DAR 4:3], q=231, 3000 kb/s, 25 tbn, 25 tbc
Stream #0.1(eng): Audio: libmp3lame, 44100 Hz, 2 channels, s16, 256 kb/s
Stream mapping:
Stream #0.0 -> #0.0
Stream #0.1 -> #0.1
Press [q] to stop encoding
frame=
[VC]
9 fps= 0 q=2.0 size=
26kB time=0.36 bitrate= 595.5kbits/s
Cancel

====== Assembly Free3GPVideoConverter, ver. 3.7.17.1203 started 3/30/2012 ======


2:37:20 PM.549|01|TRC|Enter Controller()
2:37:20 PM.565|01|TRC|propMan['BaseDir'] = C:\Program Files\DVDVideoSoft\Free 3G
P Video Converter\
2:37:20 PM.565|01|TRC|before DvsMain.InitializeComponent()
2:37:20 PM.612|01|TRC|==> DvsMain.ctor
2:37:21 PM.002|01|TRC|Code objects listing: AVConverter[DVDVideoSoft.AVConverter
.AVConverterImpl], PresetEditor[DVDVideoSoft.PresetEditor.PresetEditor], Mp3TagW
riter[DVDVideoSoft.AVConverter.Mp3TagWriterImpl], AppExtender[DVDVideoSoft._3GPC
onverterAppExt.AppExtender],
2:37:21 PM.080|01|DBG|==> DvsMain::Init
2:37:21 PM.158|01|INF|AppExtender code object created (DVDVideoSoft.3GPConverter
AppExt.dll/DVDVideoSoft._3GPConverterAppExt.AppExtender)
2:37:21 PM.173|01|DBG|==> Init
2:37:21 PM.251|01|DBG|<== Main_Load
2:37:21 PM.251|01|INF|AppExtender.DoAction(ModifyForm)
2:37:21 PM.267|01|INF|CategorizedByFormatAppExt::AppExtender.DoAction(ModifyForm
)
2:37:22 PM.452|01|INF|AVConverter code object created (DVDVideoSoft.AVConverter.
dll/DVDVideoSoft.AVConverter.AVConverterImpl)
2:37:22 PM.515|01|INF|CategorizedByFormatAppExt::AppExtender.DoAction(CheckButto
nsState)
2:37:22 PM.515|01|INF|AppExtender.DoAction(OnCultureChanged)
2:37:22 PM.515|01|INF|CategorizedByFormatAppExt::AppExtender.DoAction(OnCultureC
hanged)

2:37:22 PM.811|01|INF|CategorizedByFormatAppExt::AppExtender.DoAction(CheckButto
nsState)
2:37:22 PM.842|01|DBG|<== Main_Load
2:37:22 PM.920|01|DBG|Try to CheckForUpdates()
2:37:51 PM.609|01|INF|AppExtender.DoAction(CheckButtonsState)
2:37:51 PM.609|01|INF|CategorizedByFormatAppExt::AppExtender.DoAction(CheckButto
nsState)
2:38:03 PM.449|01|INF|AppExtender.DoAction(CheckButtonsState)
2:38:03 PM.449|01|INF|CategorizedByFormatAppExt::AppExtender.DoAction(CheckButto
nsState)
2:38:16 PM.865|01|INF|Mp3TagWriter code object created (DVDVideoSoft.AVConverter
.dll/DVDVideoSoft.AVConverter.Mp3TagWriterImpl)
2:38:17 PM.052|01|INF|AppExtender.DoAction(CheckButtonsState)
2:39:03 PM.288|01|DBG|convertButton_Click
2:39:03 PM.303|01|DBG|Conversion items (output file names):
2:39:03 PM.303|01|DBG|
E:\Movies\Animation\Puss.In.Boots.2011.720p.BluR
ay.x264.DTS-HDChina\Puss.In.Boots.2011.720p.BluRay.x264.DTS-HDChina.avi
2:39:03 PM.303|01|DBG|<== Convert()
2:39:03 PM.303|01|INF|Preset: High Quality MPEG4 (XviD, DivX compatible) / 720x5
40, 25 fps, 3 Mbps; MP3, 44.1 kHz, 256 Kbps
2:39:03 PM.366|01|DBG|==> Convert()
4:47:08 PM.292|05|INF|AppExtender.DoAction(OnItemProcessed)
4:47:08 PM.385|01|INF|Conversion was completed successfully.
4:47:09 PM.259|01|INF|Try to perform iappExtender OnAllItemsCompete action
4:47:09 PM.259|01|INF|AppExtender.DoAction(OnAllItemsCompete)
4:47:09 PM.259|01|INF|Try to perform iappExtender PostConvert action
4:47:09 PM.259|01|INF|AppExtender.DoAction(PostConvert)
4:47:18 PM.202|01|INF|PresetEditor code object created (DVDVideoSoft.PresetEdito
r.dll/DVDVideoSoft.PresetEditor.PresetEditor)
4:47:36 PM.891|01|INF|AppExtender.DoAction(SaveState)
4:47:37 PM.234|01|TRC|DvsMain.Dispose(True)
imation\Puss.In.Boots.2011.720p.BluRay.x264.DTS-HDChina\Puss.In.Boots.2011.720p.
BluRay.x264.DTS-HDChina.mkv)
[VC] FileFormat: matroska, 5414.534000
[VC] Video: h264, 0, 1280x544, 47.952048
[VC] Audio: dca, 0, 48000, 6
[VC] Title: Artist: Album: Year: 0 Track: 0
[VC] Out Open = S_OK
[VC] Set output video format, input stream id: 0, id: 0, index: 0, format type:
1, width: 1073742544, height: 540, bit rate: 3000000, frame rate: 25.000000, pix
el format: 0, native format type: 0.
[VC] Set output audio format, input stream id: 1, id: 0, index: 0, format type:
1, bit rate: 256000, sample rate: 44100, channels: 2, sample format: 0, native f
ormat type: 0.
[VC] [v09.06.2010] Save E:\Movies\Animation\Puss.In.Boots.2011.720p.BluRay.x264.
DTS-HDChina\Puss.In.Boots.2011.720p.BluRay.x264.DTS-HDChina.avi
[VC] Input audio and video streams: 1, 1. Extended output audio and video stream
s: 1, 1
[VC] Extended regime to convert: yes
[VC] OutputVideoFormat: 1, 1, 720, 540, 25.000000, 3000000
[VC] OutputAudioFormat: 1, 256000, 44100, 2
[VC] OutTimeInterval: 0.000000, -1.000000
[VC] Corrected videoOutputWidth: 720, videoOutputHeight: 306
"C:\Program Files\Common Files\DVDVideoSoft\Dll\\ffmpeg.exe" -y -i "E:\Movies\An
imation\Puss.In.Boots.2011.720p.BluRay.x264.DTS-HDChina\Puss.In.Boots.2011.720p.
BluRay.x264.DTS-HDChina.mkv" -map 0:0 -map 0:1 -ss 0.00 -vcodec msmpeg4v2 -r 25.

000000 -padtop 116 -padbottom 118 -s 720x306 -b 3000000 -aspect 4:3 -acodec libm
p3lame -ab 256000 -ar 44100 -ac 2 -f avi "E:\Movies\Animation\Puss.In.Boots.2011
.720p.BluRay.x264.DTS-HDChina\Puss.In.Boots.2011.720p.BluRay.x264.DTS-HDChina.av
i"
FFmpeg version r21343-www.DVDVideoSoft.com, Copyright (c) 2000-2010 Fabrice Bell
ard, et al.
built on Feb 2 2010 17:23:32 with gcc 4.2.4
libavutil
50. 7. 0 / 50. 7. 0
libavcodec
52.48. 0 / 52.48. 0
libavformat 52.47. 0 / 52.47. 0
libavdevice 52. 2. 0 / 52. 2. 0
libavfilter
1.17. 0 / 1.17. 0
libswscale
0. 8. 0 / 0. 8. 0
libpostproc 51. 2. 0 / 51. 2. 0
[matroska @ 0x52c710]Unknown/unsupported CodecID S_HDMV/PGS.
Last message repeated 1 times
[matroska @ 0x52c710]MAX_READ_SIZE:5000000 reached
[matroska @ 0x52c710]Estimating duration from bitrate, this may be inaccurate
Seems stream 0 codec frame rate differs from container frame rate: 47.95 (48000/
1001) -> 23.98 (24000/1001)
Input #0, matroska, from 'E:\Movies\Animation\Puss.In.Boots.2011.720p.BluRay.x26
4.DTS-HDChina\Puss.In.Boots.2011.720p.BluRay.x264.DTS-HDChina.mkv':
Duration: 01:30:14.53, start: 0.000000, bitrate: N/A
Stream #0.0(eng): Video: h264, yuv420p, 1280x544, PAR 1:1 DAR 40:17, 47.62 f
ps, 23.98 tbr, 1k tbn, 47.95 tbc
Stream #0.1(eng): Audio: dca, 48000 Hz, 6 channels, s16
Stream #0.2(eng): Subtitle: 0x0000
Stream #0.3(eng): Subtitle: 0x0000
Output #0, avi, to 'E:\Movies\Animation\Puss.In.Boots.2011.720p.BluRay.x264.DTSHDChina\Puss.In.Boots.2011.720p.BluRay.x264.DTS-HDChina.avi':
Stream #0.0(eng): Video: msmpeg4v2, yuv420p, 720x540 [PAR 1:1 DAR 4:3], q=231, 3000 kb/s, 25 tbn, 25 tbc
Stream #0.1(eng): Audio: libmp3lame, 44100 Hz, 2 channels, s16, 256 kb/s
Stream mapping:
Stream #0.0 -> #0.0
Stream #0.1 -> #0.1
Press [q] to stop encoding
frame=
frame=129818
8 fps=
fps= 17
0 q=2.0
q=2.0size=
Lsize= 1935632kB
24kB time=0.32
time=5414.48
bitrate=
bitrate=2928.6kbits/s
622.6kbits/s
d
up=0 drop=1
video:1757652kB audio:169205kB global headers:0kB muxing overhead 0.455389%
[VC] Convert Success

====== Assembly Free3GPVideoConverter, ver. 3.7.17.1203 started 3/30/2012 ======


4:55:07 PM.113|01|TRC|Enter Controller()
4:55:07 PM.113|01|TRC|propMan['BaseDir'] = C:\Program Files\DVDVideoSoft\Free 3G
P Video Converter\
4:55:07 PM.113|01|TRC|before DvsMain.InitializeComponent()
4:55:07 PM.222|01|TRC|==> DvsMain.ctor
4:55:07 PM.487|01|TRC|Code objects listing: AVConverter[DVDVideoSoft.AVConverter
.AVConverterImpl], PresetEditor[DVDVideoSoft.PresetEditor.PresetEditor], Mp3TagW
riter[DVDVideoSoft.AVConverter.Mp3TagWriterImpl], AppExtender[DVDVideoSoft._3GPC
onverterAppExt.AppExtender],
4:55:07 PM.565|01|DBG|==> DvsMain::Init
4:55:07 PM.581|01|INF|AppExtender code object created (DVDVideoSoft.3GPConverter
AppExt.dll/DVDVideoSoft._3GPConverterAppExt.AppExtender)
4:55:07 PM.596|01|DBG|==> Init
4:55:07 PM.612|01|DBG|<== Main_Load

4:55:07 PM.612|01|INF|AppExtender.DoAction(ModifyForm)
4:55:07 PM.612|01|INF|CategorizedByFormatAppExt::AppExtender.DoAction(ModifyForm
)
4:55:08 PM.064|01|INF|AVConverter code object created (DVDVideoSoft.AVConverter.
dll/DVDVideoSoft.AVConverter.AVConverterImpl)
4:55:08 PM.095|01|INF|CategorizedByFormatAppExt::AppExtender.DoAction(CheckButto
nsState)
4:55:08 PM.095|01|INF|AppExtender.DoAction(OnCultureChanged)
4:55:08 PM.095|01|INF|CategorizedByFormatAppExt::AppExtender.DoAction(OnCultureC
hanged)
4:55:08 PM.173|01|INF|CategorizedByFormatAppExt::AppExtender.DoAction(CheckButto
nsState)
4:55:08 PM.189|01|DBG|<== Main_Load
4:55:08 PM.236|01|DBG|Try to CheckForUpdates()
4:55:11 PM.403|01|INF|PresetEditor code object created (DVDVideoSoft.PresetEdito
r.dll/DVDVideoSoft.PresetEditor.PresetEditor)
4:55:43 PM.211|01|INF|AppExtender.DoAction(VerifyCategory)
4:55:43 PM.289|01|INF|CategorizedByFormatAppExt::AppExtender.DoAction(CheckButto
nsState)
4:55:55 PM.769|01|INF|AppExtender.DoAction(VerifyCategory)
4:56:04 PM.817|01|INF|CategorizedByFormatAppExt::AppExtender.DoAction(CheckButto
nsState)
4:56:10 PM.729|01|INF|AppExtender.DoAction(VerifyCategory)
4:56:13 PM.366|01|INF|CategorizedByFormatAppExt::AppExtender.DoAction(CheckButto
nsState)
4:56:17 PM.032|01|INF|AppExtender.DoAction(VerifyCategory)
4:56:36 PM.626|01|INF|CategorizedByFormatAppExt::AppExtender.DoAction(CheckButto
nsState)
4:56:48 PM.170|01|INF|AppExtender.DoAction(CheckButtonsState)
4:56:48 PM.170|01|INF|CategorizedByFormatAppExt::AppExtender.DoAction(CheckButto
nsState)
4:56:58 PM.372|01|INF|Mp3TagWriter code object created (DVDVideoSoft.AVConverter
.dll/DVDVideoSoft.AVConverter.Mp3TagWriterImpl)
4:56:58 PM.512|01|INF|AppExtender.DoAction(CheckButtonsState)
4:56:59 PM.651|01|DBG|convertButton_Click
4:56:59 PM.698|01|DBG|Conversion items (output file names):
4:56:59 PM.698|01|DBG|
E:\Movies\Animation\Puss.In.Boots.2011.720p.BluR
ay.x264.DTS-HDChina\Puss.In.Boots.2011.720p.BluRay.x264.DTS-HDChina(1).avi
4:56:59 PM.698|01|DBG|<== Convert()
4:56:59 PM.698|01|INF|Preset: Microsoft MPEG-4 V2, 1920x720, 1 Mbps; MP3, 44100
Hz, Stereo, 256 Kbps / New preset
4:56:59 PM.714|01|DBG|==> Convert()
8:27:38 PM.806|03|INF|AppExtender.DoAction(OnItemProcessed)
8:27:38 PM.806|01|INF|Conversion was completed successfully.
8:27:39 PM.748|01|INF|Try to perform iappExtender OnAllItemsCompete action
8:27:39 PM.748|01|INF|AppExtender.DoAction(OnAllItemsCompete)
8:27:39 PM.748|01|INF|Try to perform iappExtender PostConvert action
8:27:39 PM.748|01|INF|AppExtender.DoAction(PostConvert)
8:27:45 PM.774|01|INF|AppExtender.DoAction(SaveState)
8:27:45 PM.789|01|TRC|DvsMain.Dispose(True)
Audio: dca, 0, 48000, 6
[VC] Title: Artist: Album: Year: 0 Track: 0
[VC] Out Open = S_OK
[VC] [v08.02.2010] In Open(E:\Movies\Animation\Puss.In.Boots.2011.720p.BluRay.x2
64.DTS-HDChina\Puss.In.Boots.2011.720p.BluRay.x264.DTS-HDChina.mkv)
[VC] FileFormat: matroska, 5414.534000
[VC] Video: h264, 0, 1280x544, 47.952048
[VC] Audio: dca, 0, 48000, 6
[VC] Title: Artist: Album: Year: 0 Track: 0
[VC] Out Open = S_OK

[VC] Set output video format, input stream id: 0, id: 0, index: 0, format type:
1, width: 1073743744, height: 720, bit rate: 1000000, frame rate: 30.000000, pix
el format: 0, native format type: 0.
[VC] Set output audio format, input stream id: 1, id: 0, index: 0, format type:
1, bit rate: 256000, sample rate: 44100, channels: 2, sample format: 0, native f
ormat type: 0.
[VC] [v09.06.2010] Save E:\Movies\Animation\Puss.In.Boots.2011.720p.BluRay.x264.
DTS-HDChina\Puss.In.Boots.2011.720p.BluRay.x264.DTS-HDChina(1).avi
[VC] Input audio and video streams: 1, 1. Extended output audio and video stream
s: 1, 1
[VC] Extended regime to convert: yes
[VC] OutputVideoFormat: 1, 1, 1920, 720, 30.000000, 1000000
[VC] OutputAudioFormat: 1, 256000, 44100, 2
[VC] OutTimeInterval: 0.000000, -1.000000
[VC] Corrected videoOutputWidth: 1694, videoOutputHeight: 720
"C:\Program Files\Common Files\DVDVideoSoft\Dll\\ffmpeg.exe" -y -i "E:\Movies\An
imation\Puss.In.Boots.2011.720p.BluRay.x264.DTS-HDChina\Puss.In.Boots.2011.720p.
BluRay.x264.DTS-HDChina.mkv" -map 0:0 -map 0:1 -ss 0.00 -vcodec msmpeg4v2 -r 30.
000000 -padleft 112 -padright 114 -s 1694x720 -b 1000000 -aspect 8:3 -acodec lib
mp3lame -ab 256000 -ar 44100 -ac 2 -f avi "E:\Movies\Animation\Puss.In.Boots.201
1.720p.BluRay.x264.DTS-HDChina\Puss.In.Boots.2011.720p.BluRay.x264.DTS-HDChina(1
).avi"
FFmpeg version r21343-www.DVDVideoSoft.com, Copyright (c) 2000-2010 Fabrice Bell
ard, et al.
built on Feb 2 2010 17:23:32 with gcc 4.2.4
libavutil
50. 7. 0 / 50. 7. 0
libavcodec
52.48. 0 / 52.48. 0
libavformat 52.47. 0 / 52.47. 0
libavdevice 52. 2. 0 / 52. 2. 0
libavfilter
1.17. 0 / 1.17. 0
libswscale
0. 8. 0 / 0. 8. 0
libpostproc 51. 2. 0 / 51. 2. 0
[matroska @ 0x87d720]Unknown/unsupported CodecID S_HDMV/PGS.
Last message repeated 1 times
[matroska @ 0x87d720]MAX_READ_SIZE:5000000 reached
[matroska @ 0x87d720]Estimating duration from bitrate, this may be inaccurate
Seems stream 0 codec frame rate differs from container frame rate: 47.95 (48000/
1001) -> 23.98 (24000/1001)
Input #0, matroska, from 'E:\Movies\Animation\Puss.In.Boots.2011.720p.BluRay.x26
4.DTS-HDChina\Puss.In.Boots.2011.720p.BluRay.x264.DTS-HDChina.mkv':
Duration: 01:30:14.53, start: 0.000000, bitrate: N/A
Stream #0.0(eng): Video: h264, yuv420p, 1280x544, PAR 1:1 DAR 40:17, 47.62 f
ps, 23.98 tbr, 1k tbn, 47.95 tbc
Stream #0.1(eng): Audio: dca, 48000 Hz, 6 channels, s16
Stream #0.2(eng): Subtitle: 0x0000
Stream #0.3(eng): Subtitle: 0x0000
Output #0, avi, to 'E:\Movies\Animation\Puss.In.Boots.2011.720p.BluRay.x264.DTSHDChina\Puss.In.Boots.2011.720p.BluRay.x264.DTS-HDChina(1).avi':
Stream #0.0(eng): Video: msmpeg4v2, yuv420p, 1920x720 [PAR 1:1 DAR 8:3], q=2
-31, 1000 kb/s, 30 tbn, 30 tbc
Stream #0.1(eng): Audio: libmp3lame, 44100 Hz, 2 channels, s16, 256 kb/s
Stream mapping:
Stream #0.0 -> #0.0
Stream #0.1 -> #0.1
Press [q] to stop encoding

frame= 14 fps= 0 q=2.0 size=


64kB time=0.57 bitrate= 927.1kbits/s
====== Assembly Free3GPVideoConverter, ver. 3.7.17.1203 started 3/30/2012 ======
7:38:44 PM.926|01|TRC|Enter Controller()
7:38:44 PM.942|01|TRC|propMan['BaseDir'] = C:\Program Files\DVDVideoSoft\Free 3G
P Video Converter\
7:38:44 PM.942|01|TRC|before DvsMain.InitializeComponent()
7:38:44 PM.988|01|TRC|==> DvsMain.ctor
7:38:45 PM.441|01|TRC|Code objects listing: AVConverter[DVDVideoSoft.AVConverter
.AVConverterImpl], PresetEditor[DVDVideoSoft.PresetEditor.PresetEditor], Mp3TagW
riter[DVDVideoSoft.AVConverter.Mp3TagWriterImpl], AppExtender[DVDVideoSoft._3GPC
onverterAppExt.AppExtender],
7:38:45 PM.519|01|DBG|==> DvsMain::Init
7:38:45 PM.628|01|INF|AppExtender code object created (DVDVideoSoft.3GPConverter
AppExt.dll/DVDVideoSoft._3GPConverterAppExt.AppExtender)
7:38:45 PM.659|01|DBG|==> Init
7:38:45 PM.706|01|DBG|<== Main_Load
7:38:45 PM.706|01|INF|AppExtender.DoAction(ModifyForm)
7:38:45 PM.722|01|INF|CategorizedByFormatAppExt::AppExtender.DoAction(ModifyForm
)
7:38:46 PM.892|01|INF|AVConverter code object created (DVDVideoSoft.AVConverter.
dll/DVDVideoSoft.AVConverter.AVConverterImpl)
7:38:46 PM.923|01|INF|CategorizedByFormatAppExt::AppExtender.DoAction(CheckButto
nsState)
7:38:46 PM.938|01|INF|AppExtender.DoAction(OnCultureChanged)
7:38:46 PM.938|01|INF|CategorizedByFormatAppExt::AppExtender.DoAction(OnCultureC
hanged)
7:38:47 PM.188|01|INF|CategorizedByFormatAppExt::AppExtender.DoAction(CheckButto
nsState)
7:38:47 PM.219|01|DBG|<== Main_Load
7:38:47 PM.297|01|DBG|Try to CheckForUpdates()
7:38:58 PM.950|01|INF|PresetEditor code object created (DVDVideoSoft.PresetEdito
r.dll/DVDVideoSoft.PresetEditor.PresetEditor)
7:39:32 PM.272|01|INF|AppExtender.DoAction(VerifyCategory)
7:39:32 PM.334|01|INF|CategorizedByFormatAppExt::AppExtender.DoAction(CheckButto
nsState)
7:39:36 PM.687|01|INF|AppExtender.DoAction(VerifyCategory)
7:39:41 PM.148|01|INF|CategorizedByFormatAppExt::AppExtender.DoAction(CheckButto
nsState)
7:39:43 PM.925|01|INF|AppExtender.DoAction(CheckButtonsState)
7:39:43 PM.941|01|INF|CategorizedByFormatAppExt::AppExtender.DoAction(CheckButto
nsState)
7:40:02 PM.489|01|INF|AppExtender.DoAction(VerifyCategory)
7:40:02 PM.520|01|INF|CategorizedByFormatAppExt::AppExtender.DoAction(CheckButto
nsState)
7:40:04 PM.954|01|INF|AppExtender.DoAction(CheckButtonsState)
7:40:04 PM.954|01|INF|CategorizedByFormatAppExt::AppExtender.DoAction(CheckButto
nsState)
7:41:09 PM.803|01|INF|Mp3TagWriter code object created (DVDVideoSoft.AVConverter
.dll/DVDVideoSoft.AVConverter.Mp3TagWriterImpl)
7:41:09 PM.975|01|INF|AppExtender.DoAction(CheckButtonsState)
7:41:12 PM.081|01|DBG|convertButton_Click
7:41:12 PM.097|01|DBG|Conversion items (output file names):
7:41:12 PM.097|01|DBG|
E:\Movies\Animation\Puss.In.Boots.2011.720p.BluR
ay.x264.DTS-HDChina\[YOUTUBE-FULL-HD-1080P]-Mission_Impossible_4_-_Ghost_Protoco
l_-_Official_Trailer.avi
7:41:12 PM.097|01|DBG|<== Convert()
7:41:12 PM.097|01|INF|Preset: Microsoft MPEG-4 V2, 1920x720, 1 Mbps; MP3, 44100
Hz, Stereo, 256 Kbps / New preset
7:41:12 PM.159|01|DBG|==> Convert()
7:41:13 PM.937|03|ERR|Exception: videoConverter returned DVS_CONVERTER_ERROR_INV

ALID_PRESET
7:41:14 PM.000|01|ERR|There were errors during conversion: 1 file(s) is failed.
7:41:15 PM.470|01|INF|Try to perform iappExtender OnAllItemsCompete action
7:41:15 PM.470|01|INF|AppExtender.DoAction(OnAllItemsCompete)
7:41:15 PM.470|01|INF|Try to perform iappExtender PostConvert action
7:41:15 PM.470|01|INF|AppExtender.DoAction(PostConvert)
7:41:21 PM.309|01|INF|AppExtender.DoAction(CheckButtonsState)
7:41:21 PM.418|01|INF|AppExtender.DoAction(CheckButtonsState)
7:41:29 PM.249|01|INF|AppExtender.DoAction(CheckButtonsState)
7:41:30 PM.060|01|DBG|convertButton_Click
7:41:30 PM.060|01|DBG|Conversion items (output file names):
7:41:30 PM.060|01|DBG|
E:\Movies\Animation\Puss.In.Boots.2011.720p.BluR
ay.x264.DTS-HDChina\[YOUTUBE-HD-720P]-Battleship_-_Official_Global_Trailer_2_(HD
).avi
7:41:30 PM.060|01|DBG|<== Convert()
7:41:30 PM.060|01|INF|Preset: Microsoft MPEG-4 V2, 1920x720, 1 Mbps; MP3, 44100
Hz, Stereo, 256 Kbps / New preset
7:41:30 PM.060|01|DBG|==> Convert()
7:41:30 PM.731|03|ERR|Exception: videoConverter returned DVS_CONVERTER_ERROR_INV
ALID_PRESET
7:41:30 PM.778|01|ERR|There were errors during conversion: 1 file(s) is failed.
7:41:32 PM.029|01|INF|Try to perform iappExtender OnAllItemsCompete action
7:41:32 PM.029|01|INF|AppExtender.DoAction(OnAllItemsCompete)
7:41:32 PM.029|01|INF|Try to perform iappExtender PostConvert action
7:41:32 PM.029|01|INF|AppExtender.DoAction(PostConvert)
7:41:45 PM.902|01|INF|AppExtender.DoAction(CheckButtonsState)
7:41:46 PM.526|01|DBG|convertButton_Click
7:41:46 PM.526|01|DBG|Conversion items (output file names):
7:41:46 PM.526|01|DBG|
E:\Movies\Animation\Puss.In.Boots.2011.720p.BluR
ay.x264.DTS-HDChina\[YOUTUBE-HD-720P]-Battleship_-_Official_Global_Trailer_2_(HD
)(1).avi
7:41:46 PM.526|01|DBG|
E:\Movies\Animation\Puss.In.Boots.2011.720p.BluR
ay.x264.DTS-HDChina\Act Of Valor (2012) Official Trailer - HD Movie - Navy SEALS
- YouTube.avi
7:41:46 PM.526|01|DBG|<== Convert()
7:41:46 PM.526|01|INF|Preset: Microsoft MPEG-4 V2, 1920x720, 1 Mbps; MP3, 44100
Hz, Stereo, 256 Kbps / New preset
7:41:46 PM.526|01|DBG|==> Convert()
7:41:47 PM.213|03|ERR|Exception: videoConverter returned DVS_CONVERTER_ERROR_INV
ALID_PRESET
7:41:48 PM.741|03|ERR|Exception: videoConverter returned DVS_CONVERTER_ERROR_INV
ALID_PRESET
7:41:48 PM.788|01|ERR|There were errors during conversion: 2 file(s) is failed.
7:41:50 PM.002|01|INF|Try to perform iappExtender OnAllItemsCompete action
7:41:50 PM.012|01|INF|AppExtender.DoAction(OnAllItemsCompete)
7:41:50 PM.012|01|INF|Try to perform iappExtender PostConvert action
7:41:50 PM.012|01|INF|AppExtender.DoAction(PostConvert)
7:41:53 PM.532|01|INF|AppExtender.DoAction(CheckButtonsState)
7:41:53 PM.625|01|INF|AppExtender.DoAction(CheckButtonsState)
7:41:53 PM.688|01|INF|AppExtender.DoAction(CheckButtonsState)
7:41:53 PM.781|01|INF|AppExtender.DoAction(CheckButtonsState)
7:42:29 PM.740|01|INF|AppExtender.DoAction(CheckButtonsState)
7:42:31 PM.175|01|DBG|convertButton_Click
7:42:31 PM.175|01|DBG|Conversion items (output file names):
7:42:31 PM.175|01|DBG|
E:\Movies\Animation\Puss.In.Boots.2011.720p.BluR
ay.x264.DTS-HDChina\[YOUTUBE]-A_tour_of_Sushil_Kumar&#39;s_home_in_Motihari_-Epi
sode_56_-_KBC_2011_-_17th_Nov_2011.flv.avi
7:42:31 PM.175|01|DBG|<== Convert()
7:42:31 PM.175|01|INF|Preset: Microsoft MPEG-4 V2, 1920x720, 1 Mbps; MP3, 44100
Hz, Stereo, 256 Kbps / New preset

7:42:31 PM.175|01|DBG|==> Convert()


7:42:32 PM.828|03|ERR|Exception: videoConverter returned DVS_CONVERTER_ERROR_INV
ALID_PRESET
7:42:32 PM.860|01|ERR|There were errors during conversion: 1 file(s) is failed.
7:42:34 PM.116|01|INF|Try to perform iappExtender OnAllItemsCompete action
7:42:34 PM.116|01|INF|AppExtender.DoAction(OnAllItemsCompete)
7:42:34 PM.116|01|INF|Try to perform iappExtender PostConvert action
7:42:34 PM.116|01|INF|AppExtender.DoAction(PostConvert)
7:42:35 PM.976|01|INF|AppExtender.DoAction(CheckButtonsState)
7:42:36 PM.070|01|INF|AppExtender.DoAction(CheckButtonsState)
7:42:37 PM.536|01|INF|AppExtender.DoAction(SaveState)
7:42:37 PM.770|01|TRC|DvsMain.Dispose(True)
:29
[VC] Module VC Log Version = 1,6,14,1203
[VC] OS Info 6 1 0 0
[VC] [v08.02.2010] In Open(E:\Movies\vide0s\[YOUTUBE-HD-720P]-Battleship_-_Offic
ial_Global_Trailer_2_(HD).mp4)
[VC] FileFormat: mov,mp4,m4a,3gp,3g2,mj2, 151.234417
[VC] Video: h264, 2603360, 1280x720, 47.952048
[VC] Audio: aac, 151953, 44100, 2
[VC] Title: Artist: Album: Year: 0 Track: 0
[VC] Out Open = S_OK
[VC] ====== Start time: 3/30/2012, 19:41:29
[VC] Module VC Log Version = 1,6,14,1203
[VC] OS Info 6 1 0 0
[VC] [v08.02.2010] In Open(E:\Movies\vide0s\[YOUTUBE-HD-720P]-Battleship_-_Offic
ial_Global_Trailer_2_(HD).mp4)
[VC] FileFormat: mov,mp4,m4a,3gp,3g2,mj2, 151.234417
[VC] Video: h264, 2603360, 1280x720, 47.952048
[VC] Audio: aac, 151953, 44100, 2
[VC] Title: Artist: Album: Year: 0 Track: 0
[VC] Out Open = S_OK
[VC] [v08.02.2010] In Open(E:\Movies\vide0s\[YOUTUBE-HD-720P]-Battleship_-_Offic
ial_Global_Trailer_2_(HD).mp4)
[VC] FileFormat: mov,mp4,m4a,3gp,3g2,mj2, 151.234417
[VC] Video: h264, 2603360, 1280x720, 47.952048
[VC] Audio: aac, 151953, 44100, 2
[VC] Title: Artist: Album: Year: 0 Track: 0
[VC] Out Open = S_OK
[VC] Set output video format, input stream id: 0, id: 0, index: 0, format type:
1, width: 1073743744, height: 720, bit rate: 1000000, frame rate: 30.000000, pix
el format: 0, native format type: 0.
[VC] Set output audio format, input stream id: 1, id: 0, index: 0, format type:
1, bit rate: 256000, sample rate: 8000, channels: 2, sample format: 0, native fo
rmat type: 0.
[VC] [v09.06.2010] Save E:\Movies\Animation\Puss.In.Boots.2011.720p.BluRay.x264.
DTS-HDChina\[YOUTUBE-HD-720P]-Battleship_-_Official_Global_Trailer_2_(HD).avi
[VC] Input audio and video streams: 1, 1. Extended output audio and video stream
s: 1, 1
[VC] Extended regime to convert: yes
[VC] OutputVideoFormat: 1, 1, 1920, 720, 30.000000, 1000000
[VC] OutputAudioFormat: 1, 256000, 8000, 2
[VC] OutTimeInterval: 0.000000, -1.000000
[VC] Corrected videoOutputWidth: 1280, videoOutputHeight: 720
"C:\Program Files\Common Files\DVDVideoSoft\Dll\\ffmpeg.exe" -y -i "E:\Movies\vi

de0s\[YOUTUBE-HD-720P]-Battleship_-_Official_Global_Trailer_2_(HD).mp4" -map 0:0


-map 0:1 -ss 0.00 -vcodec msmpeg4v2 -r 30.000000 -padleft 320 -padright 320 -s
1280x720 -b 1000000 -aspect 8:3 -acodec libmp3lame -ab 256000 -ar 8000 -ac 2 -f
avi "E:\Movies\Animation\Puss.In.Boots.2011.720p.BluRay.x264.DTS-HDChina\[YOUTUB
E-HD-720P]-Battleship_-_Official_Global_Trailer_2_(HD).avi"
FFmpeg version r21343-www.DVDVideoSoft.com, Copyright (c) 2000-2010 Fabrice Bell
ard, et al.
built on Feb 2 2010 17:23:32 with gcc 4.2.4
libavutil
50. 7. 0 / 50. 7. 0
libavcodec
52.48. 0 / 52.48. 0
libavformat 52.47. 0 / 52.47. 0
libavdevice 52. 2. 0 / 52. 2. 0
libavfilter
1.17. 0 / 1.17. 0
libswscale
0. 8. 0 / 0. 8. 0
libpostproc 51. 2. 0 / 51. 2. 0
Seems stream 0 codec frame rate differs from container frame rate: 47.95 (48000/
1001) -> 23.98 (24000/1001)
Input #0, mov,mp4,m4a,3gp,3g2,mj2, from 'E:\Movies\vide0s\[YOUTUBE-HD-720P]-Batt
leship_-_Official_Global_Trailer_2_(HD).mp4':
Metadata:
major_brand
: mp42
minor_version : 0
compatible_brands: isommp42
Duration: 00:02:31.23, start: 0.000000, bitrate: 2757 kb/s
Stream #0.0(und): Video: h264, yuv420p, 1280x720, 2603 kb/s, 23.98 fps, 23.9
8 tbr, 48k tbn, 47.95 tbc
Stream #0.1(und): Audio: aac, 44100 Hz, stereo, s16, 151 kb/s
Output #0, avi, to 'E:\Movies\Animation\Puss.In.Boots.2011.720p.BluRay.x264.DTSHDChina\[YOUTUBE-HD-720P]-Battleship_-_Official_Global_Trailer_2_(HD).avi':
Stream #0.0(und): Video: msmpeg4v2, yuv420p, 1920x720 [PAR 1:1 DAR 8:3], q=2
-31, 1000 kb/s, 90k tbn, 30 tbc
Stream #0.1(und): Audio: libmp3lame, 8000 Hz, stereo, s16, 256 kb/s
Stream mapping:
Stream #0.0 -> #0.0
Stream #0.1 -> #0.1
Error while opening encoder for output stream #0.1 - maybe incorrect parameters
such as bit_rate, rate, width or height
[VC] Convert Success
[VC] [v08.02.2010] In Open(E:\Movies\vide0s\Act Of Valor (2012) Official Trailer
- HD Movie - Navy SEALS - YouTube.mp4)
[VC] FileFormat: mov,mp4,m4a,3gp,3g2,mj2, 157.991000
[VC] Video: h264, 1549997, 1280x544, 47.952048
[VC] Audio: aac, 151805, 44100, 2
[VC] Title: Artist: Album: Year: 0 Track: 0
[VC] Out Open = S_OK
[VC] ====== Start time: 3/30/2012, 19:41:45
[VC] Module VC Log Version = 1,6,14,1203
[VC] OS Info 6 1 0 0
[VC] [v08.02.2010] In Open(E:\Movies\vide0s\Act Of Valor (2012) Official Trailer
- HD Movie - Navy SEALS - YouTube.mp4)
[VC] FileFormat: mov,mp4,m4a,3gp,3g2,mj2, 157.991000
[VC] Video: h264, 1549997, 1280x544, 47.952048
[VC] Audio: aac, 151805, 44100, 2
[VC] Title: Artist: Album: Year: 0 Track: 0
[VC] Out Open = S_OK

[VC] ====== Start time: 3/30/2012, 19:41:45


[VC] Module VC Log Version = 1,6,14,1203
[VC] OS Info 6 1 0 0
[VC] [v08.02.2010] In Open(E:\Movies\vide0s\Act Of Valor (2012) Official Trailer
- HD Movie - Navy SEALS - YouTube.mp4)
[VC] FileFormat: mov,mp4,m4a,3gp,3g2,mj2, 157.991000
[VC] Video: h264, 1549997, 1280x544, 47.952048
[VC] Audio: aac, 151805, 44100, 2
[VC] Title: Artist: Album: Year: 0 Track: 0
[VC] Out Open = S_OK
[VC] [v08.02.2010] In Open(E:\Movies\vide0s\[YOUTUBE-HD-720P]-Battleship_-_Offic
ial_Global_Trailer_2_(HD).mp4)
[VC] FileFormat: mov,mp4,m4a,3gp,3g2,mj2, 151.234417
[VC] Video: h264, 2603360, 1280x720, 47.952048
[VC] Audio: aac, 151953, 44100, 2
[VC] Title: Artist: Album: Year: 0 Track: 0
[VC] Out Open = S_OK
[VC] Set output video format, input stream id: 0, id: 0, index: 0, format type:
1, width: 1073743744, height: 720, bit rate: 1000000, frame rate: 30.000000, pix
el format: 0, native format type: 0.
[VC] Set output audio format, input stream id: 1, id: 0, index: 0, format type:
1, bit rate: 256000, sample rate: 8000, channels: 2, sample format: 0, native fo
rmat type: 0.
[VC] [v09.06.2010] Save E:\Movies\Animation\Puss.In.Boots.2011.720p.BluRay.x264.
DTS-HDChina\[YOUTUBE-HD-720P]-Battleship_-_Official_Global_Trailer_2_(HD)(1).avi
[VC] Input audio and video streams: 1, 1. Extended output audio and video stream
s: 1, 1
[VC] Extended regime to convert: yes
[VC] OutputVideoFormat: 1, 1, 1920, 720, 30.000000, 1000000
[VC] OutputAudioFormat: 1, 256000, 8000, 2
[VC] OutTimeInterval: 0.000000, -1.000000
[VC] Corrected videoOutputWidth: 1280, videoOutputHeight: 720
"C:\Program Files\Common Files\DVDVideoSoft\Dll\\ffmpeg.exe" -y -i "E:\Movies\vi
de0s\[YOUTUBE-HD-720P]-Battleship_-_Official_Global_Trailer_2_(HD).mp4" -map 0:0
-map 0:1 -ss 0.00 -vcodec msmpeg4v2 -r 30.000000 -padleft 320 -padright 320 -s
1280x720 -b 1000000 -aspect 8:3 -acodec libmp3lame -ab 256000 -ar 8000 -ac 2 -f
avi "E:\Movies\Animation\Puss.In.Boots.2011.720p.BluRay.x264.DTS-HDChina\[YOUTUB
E-HD-720P]-Battleship_-_Official_Global_Trailer_2_(HD)(1).avi"
FFmpeg version r21343-www.DVDVideoSoft.com, Copyright (c) 2000-2010 Fabrice Bell
ard, et al.
built on Feb 2 2010 17:23:32 with gcc 4.2.4
libavutil
50. 7. 0 / 50. 7. 0
libavcodec
52.48. 0 / 52.48. 0
libavformat 52.47. 0 / 52.47. 0
libavdevice 52. 2. 0 / 52. 2. 0
libavfilter
1.17. 0 / 1.17. 0
libswscale
0. 8. 0 / 0. 8. 0
libpostproc 51. 2. 0 / 51. 2. 0
Seems stream 0 codec frame rate differs from container frame rate: 47.95 (48000/
1001) -> 23.98 (24000/1001)
Input #0, mov,mp4,m4a,3gp,3g2,mj2, from 'E:\Movies\vide0s\[YOUTUBE-HD-720P]-Batt
leship_-_Official_Global_Trailer_2_(HD).mp4':
Metadata:
major_brand
: mp42
minor_version : 0

compatible_brands: isommp42
Duration: 00:02:31.23, start: 0.000000, bitrate: 2757 kb/s
Stream #0.0(und): Video: h264, yuv420p, 1280x720, 2603 kb/s, 23.98 fps, 23.9
8 tbr, 48k tbn, 47.95 tbc
Stream #0.1(und): Audio: aac, 44100 Hz, stereo, s16, 151 kb/s
Output #0, avi, to 'E:\Movies\Animation\Puss.In.Boots.2011.720p.BluRay.x264.DTSHDChina\[YOUTUBE-HD-720P]-Battleship_-_Official_Global_Trailer_2_(HD)(1).avi':
Stream #0.0(und): Video: msmpeg4v2, yuv420p, 1920x720 [PAR 1:1 DAR 8:3], q=2
-31, 1000 kb/s, 90k tbn, 30 tbc
Stream #0.1(und): Audio: libmp3lame, 8000 Hz, stereo, s16, 256 kb/s
Stream mapping:
Stream #0.0 -> #0.0
Stream #0.1 -> #0.1
Error while opening encoder for output stream #0.1 - maybe incorrect parameters
such as bit_rate, rate, width or height
[VC] Convert Success
[VC] [v08.02.2010] In Open(E:\Movies\vide0s\Act Of Valor (2012) Official Trailer
- HD Movie - Navy SEALS - YouTube.mp4)
[VC] FileFormat: mov,mp4,m4a,3gp,3g2,mj2, 157.991000
[VC] Video: h264, 1549997, 1280x544, 47.952048
[VC] Audio: aac, 151805, 44100, 2
[VC] Title: Artist: Album: Year: 0 Track: 0
[VC] Out Open = S_OK
[VC] Set output video format, input stream id: 0, id: 0, index: 0, format type:
1, width: 1073743744, height: 720, bit rate: 1000000, frame rate: 30.000000, pix
el format: 0, native format type: 0.
[VC] Set output audio format, input stream id: 1, id: 0, index: 0, format type:
1, bit rate: 256000, sample rate: 8000, channels: 2, sample format: 0, native fo
rmat type: 0.
[VC] [v09.06.2010] Save E:\Movies\Animation\Puss.In.Boots.2011.720p.BluRay.x264.
DTS-HDChina\Act Of Valor (2012) Official Trailer - HD Movie - Navy SEALS - YouTu
be.avi
[VC] Input audio and video streams: 1, 1. Extended output audio and video stream
s: 1, 1
[VC] Extended regime to convert: yes
[VC] OutputVideoFormat: 1, 1, 1920, 720, 30.000000, 1000000
[VC] OutputAudioFormat: 1, 256000, 8000, 2
[VC] OutTimeInterval: 0.000000, -1.000000
[VC] Corrected videoOutputWidth: 1694, videoOutputHeight: 720
"C:\Program Files\Common Files\DVDVideoSoft\Dll\\ffmpeg.exe" -y -i "E:\Movies\vi
de0s\Act Of Valor (2012) Official Trailer - HD Movie - Navy SEALS - YouTube.mp4"
-map 0:0 -map 0:1 -ss 0.00 -vcodec msmpeg4v2 -r 30.000000 -padleft 112 -padrigh
t 114 -s 1694x720 -b 1000000 -aspect 8:3 -acodec libmp3lame -ab 256000 -ar 8000
-ac 2 -f avi "E:\Movies\Animation\Puss.In.Boots.2011.720p.BluRay.x264.DTS-HDChin
a\Act Of Valor (2012) Official Trailer - HD Movie - Navy SEALS - YouTube.avi"
FFmpeg version r21343-www.DVDVideoSoft.com, Copyright (c) 2000-2010 Fabrice Bell
ard, et al.
built on Feb 2 2010 17:23:32 with gcc 4.2.4
libavutil
50. 7. 0 / 50. 7. 0
libavcodec
52.48. 0 / 52.48. 0
libavformat 52.47. 0 / 52.47. 0
libavdevice 52. 2. 0 / 52. 2. 0
libavfilter
1.17. 0 / 1.17. 0
libswscale
0. 8. 0 / 0. 8. 0

libpostproc

51. 2. 0 / 51. 2. 0

Seems stream 0 codec frame rate differs from container frame rate: 47.95 (48000/
1001) -> 24.00 (24/1)
Input #0, mov,mp4,m4a,3gp,3g2,mj2, from 'E:\Movies\vide0s\Act Of Valor (2012) Of
ficial Trailer - HD Movie - Navy SEALS - YouTube.mp4':
Metadata:
major_brand
: mp42
minor_version : 0
compatible_brands: isommp42
Duration: 00:02:37.99, start: 0.000000, bitrate: 1707 kb/s
Stream #0.0(und): Video: h264, yuv420p, 1280x544, 1549 kb/s, 23.98 fps, 24 t
br, 1k tbn, 47.95 tbc
Stream #0.1(und): Audio: aac, 44100 Hz, stereo, s16, 151 kb/s
Output #0, avi, to 'E:\Movies\Animation\Puss.In.Boots.2011.720p.BluRay.x264.DTSHDChina\Act Of Valor (2012) Official Trailer - HD Movie - Navy SEALS - YouTube.a
vi':
Stream #0.0(und): Video: msmpeg4v2, yuv420p, 1920x720 [PAR 1:1 DAR 8:3], q=2
-31, 1000 kb/s, 90k tbn, 30 tbc
Stream #0.1(und): Audio: libmp3lame, 8000 Hz, stereo, s16, 256 kb/s
Stream mapping:
Stream #0.0 -> #0.0
Stream #0.1 -> #0.1
Error while opening encoder for output stream #0.1 - maybe incorrect parameters
such as bit_rate, rate, width or height
[VC] Convert Success
[VC] [v08.02.2010] In Open(E:\Movies\vide0s\[YOUTUBE]-A_tour_of_Sushil_Kumar&#39
;s_home_in_Motihari_-Episode_56_-_KBC_2011_-_17th_Nov_2011.flv.flv)
[VC] FileFormat: flv, 148.400000
[VC] Video: h264, 685879, 640x360, 50.000000
[VC] Audio: aac, 0, 44100, 2
[VC] Title: Artist: Album: Year: 0 Track: 0
[VC] Out Open = S_OK
[VC] ====== Start time: 3/30/2012, 19:42:29
[VC] Module VC Log Version = 1,6,14,1203
[VC] OS Info 6 1 0 0
[VC] [v08.02.2010] In Open(E:\Movies\vide0s\[YOUTUBE]-A_tour_of_Sushil_Kumar&#39
;s_home_in_Motihari_-Episode_56_-_KBC_2011_-_17th_Nov_2011.flv.flv)
[VC] FileFormat: flv, 148.400000
[VC] Video: h264, 685879, 640x360, 50.000000
[VC] Audio: aac, 0, 44100, 2
[VC] Title: Artist: Album: Year: 0 Track: 0
[VC] Out Open = S_OK
[VC] ====== Start time: 3/30/2012, 19:42:29
[VC] Module VC Log Version = 1,6,14,1203
[VC] OS Info 6 1 0 0
[VC] [v08.02.2010] In Open(E:\Movies\vide0s\[YOUTUBE]-A_tour_of_Sushil_Kumar&#39
;s_home_in_Motihari_-Episode_56_-_KBC_2011_-_17th_Nov_2011.flv.flv)
[VC] FileFormat: flv, 148.400000
[VC] Video: h264, 685879, 640x360, 50.000000
[VC] Audio: aac, 0, 44100, 2
[VC] Title: Artist: Album: Year: 0 Track: 0
[VC] Out Open = S_OK
[VC] [v08.02.2010] In Open(E:\Movies\vide0s\[YOUTUBE]-A_tour_of_Sushil_Kumar&#39
;s_home_in_Motihari_-Episode_56_-_KBC_2011_-_17th_Nov_2011.flv.flv)
[VC] FileFormat: flv, 148.400000

[VC] Video: h264, 685879, 640x360, 50.000000


[VC] Audio: aac, 0, 44100, 2
[VC] Title: Artist: Album: Year: 0 Track: 0
[VC] Out Open = S_OK
[VC] Set output video format, input stream id: 0, id: 0, index: 0, format type:
1, width: 1073743744, height: 720, bit rate: 1000000, frame rate: 30.000000, pix
el format: 0, native format type: 0.
[VC] Set output audio format, input stream id: 1, id: 0, index: 0, format type:
1, bit rate: 256000, sample rate: 8000, channels: 2, sample format: 0, native fo
rmat type: 0.
[VC] [v09.06.2010] Save E:\Movies\Animation\Puss.In.Boots.2011.720p.BluRay.x264.
DTS-HDChina\[YOUTUBE]-A_tour_of_Sushil_Kumar&#39;s_home_in_Motihari_-Episode_56_
-_KBC_2011_-_17th_Nov_2011.flv.avi
[VC] Input audio and video streams: 1, 1. Extended output audio and video stream
s: 1, 1
[VC] Extended regime to convert: yes
[VC] OutputVideoFormat: 1, 1, 1920, 720, 30.000000, 1000000
[VC] OutputAudioFormat: 1, 256000, 8000, 2
[VC] OutTimeInterval: 0.000000, -1.000000
[VC] Corrected videoOutputWidth: 1280, videoOutputHeight: 720
"C:\Program Files\Common Files\DVDVideoSoft\Dll\\ffmpeg.exe" -y -i "E:\Movies\vi
de0s\[YOUTUBE]-A_tour_of_Sushil_Kumar&#39;s_home_in_Motihari_-Episode_56_-_KBC_2
011_-_17th_Nov_2011.flv.flv" -map 0:0 -map 0:1 -ss 0.00 -vcodec msmpeg4v2 -r 30.
000000 -padleft 320 -padright 320 -s 1280x720 -b 1000000 -aspect 8:3 -acodec lib
mp3lame -ab 256000 -ar 8000 -ac 2 -f avi "E:\Movies\Animation\Puss.In.Boots.2011
.720p.BluRay.x264.DTS-HDChina\[YOUTUBE]-A_tour_of_Sushil_Kumar&#39;s_home_in_Mot
ihari_-Episode_56_-_KBC_2011_-_17th_Nov_2011.flv.avi"
FFmpeg version r21343-www.DVDVideoSoft.com, Copyright (c) 2000-2010 Fabrice Bell
ard, et al.
built on Feb 2 2010 17:23:32 with gcc 4.2.4
libavutil
50. 7. 0 / 50. 7. 0
libavcodec
52.48. 0 / 52.48. 0
libavformat 52.47. 0 / 52.47. 0
libavdevice 52. 2. 0 / 52. 2. 0
libavfilter
1.17. 0 / 1.17. 0
libswscale
0. 8. 0 / 0. 8. 0
libpostproc 51. 2. 0 / 51. 2. 0
[flv @ 0x54d720]Estimating duration from bitrate, this may be inaccurate
Seems stream 0 codec frame rate differs from container frame rate: 50.00 (50/1)
-> 25.00 (25/1)
Input #0, flv, from 'E:\Movies\vide0s\[YOUTUBE]-A_tour_of_Sushil_Kumar&#39;s_hom
e_in_Motihari_-Episode_56_-_KBC_2011_-_17th_Nov_2011.flv.flv':
Metadata:
duration
: 148
starttime
: 0
totalduration : 148
width
: 640
height
: 360
videodatarate : 670
audiodatarate : 129
totaldatarate : 806
framerate
: 25
bytelength
: 14964912
canseekontime : true
sourcedata
: BD075EE87HH1321703319151646

purl
:
pmsg
:
Duration: 00:02:28.40, start: 0.000000, bitrate: 685 kb/s
Stream #0.0: Video: h264, yuv420p, 640x360, 685 kb/s, 50 fps, 25 tbr, 1k tbn
, 50 tbc
Stream #0.1: Audio: aac, 44100 Hz, stereo, s16
Output #0, avi, to 'E:\Movies\Animation\Puss.In.Boots.2011.720p.BluRay.x264.DTSHDChina\[YOUTUBE]-A_tour_of_Sushil_Kumar&#39;s_home_in_Motihari_-Episode_56_-_KB
C_2011_-_17th_Nov_2011.flv.avi':
Stream #0.0: Video: msmpeg4v2, yuv420p, 1920x720 [PAR 1:1 DAR 8:3], q=2-31,
1000 kb/s, 90k tbn, 30 tbc
Stream #0.1: Audio: libmp3lame, 8000 Hz, stereo, s16, 256 kb/s
Stream mapping:
Stream #0.0 -> #0.0
Stream #0.1 -> #0.1
Error while opening encoder for output stream #0.1 - maybe incorrect parameters
such as bit_rate, rate, width or height
[VC] Convert Success
[VC] Convert Success

====== Assembly Free3GPVideoConverter, ver. 3.7.17.1203 started 3/30/2012 ======


8:45:49 PM.853|01|TRC|Enter Controller()
8:45:49 PM.869|01|TRC|propMan['BaseDir'] = C:\Program Files\DVDVideoSoft\Free 3G
P Video Converter\
8:45:49 PM.869|01|TRC|before DvsMain.InitializeComponent()
8:45:49 PM.916|01|TRC|==> DvsMain.ctor
8:45:50 PM.415|01|TRC|Code objects listing: AVConverter[DVDVideoSoft.AVConverter
.AVConverterImpl], PresetEditor[DVDVideoSoft.PresetEditor.PresetEditor], Mp3TagW
riter[DVDVideoSoft.AVConverter.Mp3TagWriterImpl], AppExtender[DVDVideoSoft._3GPC
onverterAppExt.AppExtender],
8:45:50 PM.493|01|DBG|==> DvsMain::Init
8:45:50 PM.571|01|INF|AppExtender code object created (DVDVideoSoft.3GPConverter
AppExt.dll/DVDVideoSoft._3GPConverterAppExt.AppExtender)
8:45:50 PM.586|01|DBG|==> Init
8:45:50 PM.649|01|DBG|<== Main_Load
8:45:50 PM.649|01|INF|AppExtender.DoAction(ModifyForm)
8:45:50 PM.649|01|INF|CategorizedByFormatAppExt::AppExtender.DoAction(ModifyForm
)
8:45:51 PM.834|01|INF|AVConverter code object created (DVDVideoSoft.AVConverter.
dll/DVDVideoSoft.AVConverter.AVConverterImpl)
8:45:51 PM.881|01|INF|CategorizedByFormatAppExt::AppExtender.DoAction(CheckButto
nsState)
8:45:51 PM.881|01|INF|AppExtender.DoAction(OnCultureChanged)
8:45:51 PM.881|01|INF|CategorizedByFormatAppExt::AppExtender.DoAction(OnCultureC
hanged)
8:45:52 PM.146|01|INF|CategorizedByFormatAppExt::AppExtender.DoAction(CheckButto
nsState)
8:45:52 PM.178|01|DBG|<== Main_Load
8:45:52 PM.256|01|DBG|Try to CheckForUpdates()
8:46:13 PM.128|01|INF|Mp3TagWriter code object created (DVDVideoSoft.AVConverter
.dll/DVDVideoSoft.AVConverter.Mp3TagWriterImpl)
8:46:13 PM.300|01|INF|AppExtender.DoAction(CheckButtonsState)
8:46:15 PM.531|01|INF|AppExtender.DoAction(CheckButtonsState)
8:46:15 PM.546|01|INF|CategorizedByFormatAppExt::AppExtender.DoAction(CheckButto
nsState)
8:46:25 PM.078|01|DBG|convertButton_Click

8:46:25 PM.094|01|DBG|Conversion items (output file names):


8:46:25 PM.094|01|DBG|
E:\Movies\Animation\Puss.In.Boots.2011.720p.BluR
ay.x264.DTS-HDChina\Puss.In.Boots.2011.720p.BluRay.x264.DTS-HDChina(1).mp4
8:46:25 PM.109|01|DBG|<== Convert()
8:46:25 PM.109|01|INF|Preset: iPod Highest Quality / 640x480, H.264, 30 fps, 2.5
Mbps; AAC, 48 kHz, 160 Kbps
8:46:25 PM.156|01|DBG|==> Convert()
10:12:31 PM.088|05|INF|AppExtender.DoAction(OnItemProcessed)
10:12:31 PM.181|01|INF|Conversion was completed successfully.
10:12:32 PM.079|01|INF|Try to perform iappExtender OnAllItemsCompete action
10:12:32 PM.079|01|INF|AppExtender.DoAction(OnAllItemsCompete)
10:12:32 PM.079|01|INF|Try to perform iappExtender PostConvert action
10:12:32 PM.079|01|INF|AppExtender.DoAction(PostConvert)
10:22:22 PM.979|01|INF|AppExtender.DoAction(SaveState)
10:22:23 PM.213|01|TRC|DvsMain.Dispose(True)
2011.720p.BluRay.x264.DTS-HDChina\Puss.In.Boots.2011.720p.BluRay.x264.DTS-HDChin
a.mkv)
[VC] FileFormat: matroska, 5414.534000
[VC] Video: h264, 0, 1280x544, 47.952048
[VC] Audio: dca, 0, 48000, 6
[VC] Title: Artist: Album: Year: 0 Track: 0
[VC] Out Open = S_OK
[VC] Set output video format, input stream id: 0, id: 0, index: 0, format type:
21, width: 1073742464, height: 480, bit rate: 2500000, frame rate: 30.000000, pi
xel format: 0, native format type: 0.
[VC] Set output audio format, input stream id: 1, id: 0, index: 0, format type:
0, bit rate: 160000, sample rate: 48000, channels: 2, sample format: 0, native f
ormat type: 0.
[VC] [v09.06.2010] Save E:\Movies\Animation\Puss.In.Boots.2011.720p.BluRay.x264.
DTS-HDChina\Puss.In.Boots.2011.720p.BluRay.x264.DTS-HDChina(1).mp4
[VC] Input audio and video streams: 1, 1. Extended output audio and video stream
s: 1, 1
[VC] Extended regime to convert: yes
[VC] OutputVideoFormat: 1, 21, 640, 480, 30.000000, 2500000
[VC] OutputAudioFormat: 0, 160000, 48000, 2
[VC] OutTimeInterval: 0.000000, -1.000000
[VC] Corrected videoOutputWidth: 640, videoOutputHeight: 272
"C:\Program Files\Common Files\DVDVideoSoft\Dll\\ffmpeg.exe" -y -i "E:\Movies\An
imation\Puss.In.Boots.2011.720p.BluRay.x264.DTS-HDChina\Puss.In.Boots.2011.720p.
BluRay.x264.DTS-HDChina.mkv" -map 0:0 -map 0:1 -ss 0.00 -vcodec libx264 -level 3
0 -flags2 mixed_refs -me_method umh -partitions +parti4x4+parti8x8+partp4x4+part
p8x8+partb8x8 -refs 2 -trellis 2 -subq 7 -brd_scale 1 -me_range 16 -qmin 10 -qma
x 51 -keyint_min 25 -qcomp 0.6 -r 30.000000 -padtop 104 -padbottom 104 -s 640x27
2 -b 2500000 -aspect 4:3 -acodec libfaac -ab 160000 -ar 48000 -ac 2 -f mp4 -thre
ads 5 "E:\Movies\Animation\Puss.In.Boots.2011.720p.BluRay.x264.DTS-HDChina\Puss.
In.Boots.2011.720p.BluRay.x264.DTS-HDChina(1).mp4"
FFmpeg version r21343-www.DVDVideoSoft.com, Copyright (c) 2000-2010 Fabrice Bell
ard, et al.
built on Feb 2 2010 17:23:32 with gcc 4.2.4
libavutil
50. 7. 0 / 50. 7. 0
libavcodec
52.48. 0 / 52.48. 0
libavformat 52.47. 0 / 52.47. 0
libavdevice 52. 2. 0 / 52. 2. 0
libavfilter
1.17. 0 / 1.17. 0
libswscale
0. 8. 0 / 0. 8. 0
libpostproc 51. 2. 0 / 51. 2. 0

[matroska @ 0x57e4e0]Unknown/unsupported CodecID S_HDMV/PGS.


Last message repeated 1 times
[matroska @ 0x57e4e0]MAX_READ_SIZE:5000000 reached
[matroska @ 0x57e4e0]Estimating duration from bitrate, this may be inaccurate
Seems stream 0 codec frame rate differs from container frame rate: 47.95 (48000/
1001) -> 23.98 (24000/1001)
Input #0, matroska, from 'E:\Movies\Animation\Puss.In.Boots.2011.720p.BluRay.x26
4.DTS-HDChina\Puss.In.Boots.2011.720p.BluRay.x264.DTS-HDChina.mkv':
Duration: 01:30:14.53, start: 0.000000, bitrate: N/A
Stream #0.0(eng): Video: h264, yuv420p, 1280x544, PAR 1:1 DAR 40:17, 47.62 f
ps, 23.98 tbr, 1k tbn, 47.95 tbc
Stream #0.1(eng): Audio: dca, 48000 Hz, 6 channels, s16
Stream #0.2(eng): Subtitle: 0x0000
Stream #0.3(eng): Subtitle: 0x0000
[libx264 @ 0x1c0fb30]using SAR=1/1
[libx264 @ 0x1c0fb30]using cpu capabilities: MMX2 SSE2Fast SSSE3 FastShuffle SSE
4.2
[libx264 @ 0x1c0fb30]profile Baseline, level 3.0
Output #0, mp4, to 'E:\Movies\Animation\Puss.In.Boots.2011.720p.BluRay.x264.DTSHDChina\Puss.In.Boots.2011.720p.BluRay.x264.DTS-HDChina(1).mp4':
Stream #0.0(eng): Video: libx264, yuv420p, 640x480 [PAR 1:1 DAR 4:3], q=10-5
1, 2500 kb/s, 30 tbn, 30 tbc
Stream #0.1(eng): Audio: aac, 48000 Hz, 2 channels, s16, 160 kb/s
Stream mapping:
Stream #0.0 -> #0.0
Stream #0.1 -> #0.1
Press [q] to stop encoding
frame= 11 fps=
frame=129819
fps= 25
0 q=14.0
q=-1.0size=
Lsize= 1501041kB
2kB time=0.07
time=5414.44
bitrate=
bitrate=2271.1kbits/s
192.2kbits/s
video:1391891kB audio:105600kB global headers:0kB muxing overhead 0.237067%
[libx264 @ 0x1c0fb30]frame I:10819 Avg QP:12.81 size: 39529
[libx264 @ 0x1c0fb30]frame P:119000 Avg QP:15.89 size: 8383
[libx264 @ 0x1c0fb30]mb I I16..4: 48.7% 0.0% 51.3%
[libx264 @ 0x1c0fb30]mb P I16..4: 1.6% 0.0% 3.5% P16..4: 25.6% 14.5% 4.8%
0.9% 0.8%
skip:48.3%
[libx264 @ 0x1c0fb30]final ratefactor: 15.98
[libx264 @ 0x1c0fb30]coded y,uvDC,uvAC intra: 59.2% 64.3% 60.4% inter: 20.8% 18.
8% 9.5%
[libx264 @ 0x1c0fb30]i16 v,h,dc,p: 74% 7% 8% 11%
[libx264 @ 0x1c0fb30]i4 v,h,dc,ddl,ddr,vr,hd,vl,hu: 15% 23% 17% 7% 8% 7% 9%
6% 8%
[libx264 @ 0x1c0fb30]ref P L0: 74.8% 25.2%
[libx264 @ 0x1c0fb30]kb/s:2634.98
[VC] Convert Success