Sei sulla pagina 1di 28

====== Assembly Free3GPVideoConverter, ver. 3.7.13.

97 started 9/27/2010 ======


12:42:57 AM.715|01|TRC|Enter Controller()
12:42:57 AM.715|01|TRC|propMan['BaseDir'] = C:\Program Files (x86)\DVDVideoSoft\
Free 3GP Video Converter\
12:42:57 AM.715|01|TRC|before DvsMain.InitializeComponent()
12:42:57 AM.762|01|TRC|==> DvsMain.ctor
12:42:58 AM.355|01|TRC|Code objects listing: AVConverter[DVDVideoSoft.AVConverte
r.AVConverterImpl], PresetEditor[DVDVideoSoft.PresetEditor.PresetEditor], Mp3Tag
Writer[DVDVideoSoft.AVConverter.Mp3TagWriterImpl], AppExtender[DVDVideoSoft._3GP
ConverterAppExt.AppExtender],
12:42:58 AM.402|01|DBG|==> DvsMain::Init
12:42:58 AM.464|01|DBG|==> Init
12:42:58 AM.527|01|DBG|<== Main_Load
12:42:58 AM.527|01|INF|AppExtender.DoAction(ModifyForm)
12:42:58 AM.527|01|INF|CategorizedByFormatAppExt::AppExtender.DoAction(ModifyFor
m)
12:42:58 AM.776|01|INF|AppExtender.DoAction(OnCultureChanged)
12:42:58 AM.776|01|INF|CategorizedByFormatAppExt::AppExtender.DoAction(OnCulture
Changed)
12:42:58 AM.917|01|DBG|<== Main_Load
12:42:58 AM.995|01|DBG|Try to CheckForUpdates()
12:44:55 AM.196|01|DBG|convertButton_Click
12:44:55 AM.228|01|DBG|Conversion items (output file names):
12:44:55 AM.228|01|DBG|
\\jnbrook\Videos\Clips\Josh's Phone\qikvideo-201
0-09-23-09-29-03.avi
12:44:55 AM.228|01|DBG|
\\jnbrook\Videos\Clips\Josh's Phone\qikvideo-201
0-09-24-20-48-56.avi
12:44:55 AM.228|01|DBG|
\\jnbrook\Videos\Clips\Josh's Phone\qikvideo-201
0-09-25-14-20-55.avi
12:44:55 AM.228|01|DBG|
\\jnbrook\Videos\Clips\Josh's Phone\qikvideo-201
0-09-25-14-24-21.avi
12:44:55 AM.228|01|DBG|
\\jnbrook\Videos\Clips\Josh's Phone\qikvideo-201
0-09-25-14-26-03.avi
12:44:55 AM.228|01|DBG|
\\jnbrook\Videos\Clips\Josh's Phone\qikvideo-201
0-09-25-14-32-03.avi
12:44:55 AM.228|01|DBG|
\\jnbrook\Videos\Clips\Josh's Phone\qikvideo-201
0-09-25-14-34-58.avi
12:44:55 AM.228|01|DBG|
\\jnbrook\Videos\Clips\Josh's Phone\qikvideo-201
0-09-25-14-39-30.avi
12:44:55 AM.228|01|DBG|
\\jnbrook\Videos\Clips\Josh's Phone\qikvideo-201
0-09-25-14-47-09.avi
12:44:55 AM.228|01|DBG|
\\jnbrook\Videos\Clips\Josh's Phone\qikvideo-201
0-09-25-14-52-53.avi
12:44:55 AM.228|01|DBG|
\\jnbrook\Videos\Clips\Josh's Phone\qikvideo-201
0-09-26-08-15-08.avi
12:44:55 AM.228|01|DBG|
\\jnbrook\Videos\Clips\Josh's Phone\qikvideo-201
0-09-26-09-19-50.avi
12:44:55 AM.228|01|DBG|
\\jnbrook\Videos\Clips\Josh's Phone\qikvideo-201
0-09-26-10-02-51.avi
12:44:55 AM.228|01|DBG|
\\jnbrook\Videos\Clips\Josh's Phone\qikvideo-201
0-09-26-10-51-26.avi
12:44:55 AM.228|01|DBG|
\\jnbrook\Videos\Clips\Josh's Phone\qikvideo-201
0-09-26-10-54-46.avi
12:44:55 AM.228|01|DBG|<== Convert()
12:44:55 AM.228|01|INF|Preset: High Quality MPEG4 (XviD, DivX compatible) / 720x
540, 25 fps, 3 Mbps; MP3, 44.1 kHz, 256 Kbps
12:44:55 AM.306|01|DBG|==> Convert()
12:46:25 AM.146|03|INF|AppExtender.DoAction(OnItemProcessed)
12:46:42 AM.091|03|INF|AppExtender.DoAction(OnItemProcessed)

12:48:19 AM.883|03|INF|AppExtender.DoAction(OnItemProcessed)
12:49:24 AM.108|03|INF|AppExtender.DoAction(OnItemProcessed)
12:53:08 AM.950|03|INF|AppExtender.DoAction(OnItemProcessed)
12:55:11 AM.473|03|INF|AppExtender.DoAction(OnItemProcessed)
12:57:39 AM.717|03|INF|AppExtender.DoAction(OnItemProcessed)
12:58:51 AM.337|03|INF|AppExtender.DoAction(OnItemProcessed)
12:59:32 AM.068|03|INF|AppExtender.DoAction(OnItemProcessed)
1:03:30 AM.443|03|INF|AppExtender.DoAction(OnItemProcessed)
1:04:41 AM.923|03|INF|AppExtender.DoAction(OnItemProcessed)
1:06:04 AM.077|03|INF|AppExtender.DoAction(OnItemProcessed)
1:07:32 AM.068|03|INF|AppExtender.DoAction(OnItemProcessed)
1:09:50 AM.826|03|INF|AppExtender.DoAction(OnItemProcessed)
1:10:10 AM.334|03|INF|AppExtender.DoAction(OnItemProcessed)
1:10:10 AM.384|01|INF|Conversion was completed successfully.
1:10:11 AM.206|01|INF|Try to perform iappExtender OnAllItemsCompete action
1:10:11 AM.206|01|INF|AppExtender.DoAction(OnAllItemsCompete)
1:10:11 AM.206|01|INF|Try to perform iappExtender PostConvert action
1:10:11 AM.206|01|INF|AppExtender.DoAction(PostConvert)
1:11:16 AM.287|01|INF|AppExtender.DoAction(SaveState)
1:11:16 AM.737|01|TRC|DvsMain.Dispose(True)
tart time: 9/27/2010, 0:43:15
[VC] Module VC Log Version = 1,6,13,342
[VC] OS Info 6 1 0 0
[VC] [v08.02.2010] In Open(\\JNBROOK\Videos\Clips\Josh's Phone\qikvideo-2010-0925-14-20-55.3gp)
[VC] FileFormat: mov,mp4,m4a,3gp,3g2,mj2, 96.726000
[VC] Video: mpeg4, 421614, 800x480, 48.000000
[VC] Audio: libopencore_amrnb, 12800, 8000, 1
[VC] Title: Artist: Album: Year: 0 Track: 0
[VC] Out Open = S_OK
[VC] [v08.02.2010] In Open(\\JNBROOK\Videos\Clips\Josh's Phone\qikvideo-2010-0925-14-24-21.3gp)
[VC] FileFormat: mov,mp4,m4a,3gp,3g2,mj2, 59.843000
[VC] Video: mpeg4, 471287, 800x480, 48.000000
[VC] Audio: libopencore_amrnb, 12800, 8000, 1
[VC] Title: Artist: Album: Year: 0 Track: 0
[VC] Out Open = S_OK
[VC] ====== Start time: 9/27/2010, 0:43:15
[VC] Module VC Log Version = 1,6,13,342
[VC] OS Info 6 1 0 0
[VC] [v08.02.2010] In Open(\\JNBROOK\Videos\Clips\Josh's Phone\qikvideo-2010-0925-14-24-21.3gp)
[VC] FileFormat: mov,mp4,m4a,3gp,3g2,mj2, 59.843000
[VC] Video: mpeg4, 471287, 800x480, 48.000000
[VC] Audio: libopencore_amrnb, 12800, 8000, 1
[VC] Title: Artist: Album: Year: 0 Track: 0
[VC] Out Open = S_OK
[VC] ====== Start time: 9/27/2010, 0:43:15
[VC] Module VC Log Version = 1,6,13,342
[VC] OS Info 6 1 0 0
[VC] [v08.02.2010] In Open(\\JNBROOK\Videos\Clips\Josh's Phone\qikvideo-2010-0925-14-24-21.3gp)
[VC] FileFormat: mov,mp4,m4a,3gp,3g2,mj2, 59.843000
[VC] Video: mpeg4, 471287, 800x480, 48.000000
[VC] Audio: libopencore_amrnb, 12800, 8000, 1
[VC] Title: Artist: Album: Year: 0 Track: 0
[VC] Out Open = S_OK
[VC] [v08.02.2010] In Open(\\JNBROOK\Videos\Clips\Josh's Phone\qikvideo-2010-09-

25-14-26-03.3gp)
[VC] FileFormat: mov,mp4,m4a,3gp,3g2,mj2, 245.227000
[VC] Video: mpeg4, 470624, 800x480, 48.000000
[VC] Audio: libopencore_amrnb, 12800, 8000, 1
[VC] Title: Artist: Album: Year: 0 Track: 0
[VC] Out Open = S_OK
[VC] ====== Start time: 9/27/2010, 0:43:15
[VC] Module VC Log Version = 1,6,13,342
[VC] OS Info 6 1 0 0
[VC] [v08.02.2010] In Open(\\JNBROOK\Videos\Clips\Josh's Phone\qikvideo-2010-0925-14-26-03.3gp)
[VC] FileFormat: mov,mp4,m4a,3gp,3g2,mj2, 245.227000
[VC] Video: mpeg4, 470624, 800x480, 48.000000
[VC] Audio: libopencore_amrnb, 12800, 8000, 1
[VC] Title: Artist: Album: Year: 0 Track: 0
[VC] Out Open = S_OK
[VC] ====== Start time: 9/27/2010, 0:43:15
[VC] Module VC Log Version = 1,6,13,342
[VC] OS Info 6 1 0 0
[VC] [v08.02.2010] In Open(\\JNBROOK\Videos\Clips\Josh's Phone\qikvideo-2010-0925-14-26-03.3gp)
[VC] FileFormat: mov,mp4,m4a,3gp,3g2,mj2, 245.227000
[VC] Video: mpeg4, 470624, 800x480, 48.000000
[VC] Audio: libopencore_amrnb, 12800, 8000, 1
[VC] Title: Artist: Album: Year: 0 Track: 0
[VC] Out Open = S_OK
[VC] [v08.02.2010] In Open(\\JNBROOK\Videos\Clips\Josh's Phone\qikvideo-2010-0925-14-32-03.3gp)
[VC] FileFormat: mov,mp4,m4a,3gp,3g2,mj2, 124.682000
[VC] Video: mpeg4, 426160, 800x480, 48.000000
[VC] Audio: libopencore_amrnb, 12800, 8000, 1
[VC] Title: Artist: Album: Year: 0 Track: 0
[VC] Out Open = S_OK
[VC] ====== Start time: 9/27/2010, 0:43:15
[VC] Module VC Log Version = 1,6,13,342
[VC] OS Info 6 1 0 0
[VC] [v08.02.2010] In Open(\\JNBROOK\Videos\Clips\Josh's Phone\qikvideo-2010-0925-14-32-03.3gp)
[VC] FileFormat: mov,mp4,m4a,3gp,3g2,mj2, 124.682000
[VC] Video: mpeg4, 426160, 800x480, 48.000000
[VC] Audio: libopencore_amrnb, 12800, 8000, 1
[VC] Title: Artist: Album: Year: 0 Track: 0
[VC] Out Open = S_OK
[VC] ====== Start time: 9/27/2010, 0:43:15
[VC] Module VC Log Version = 1,6,13,342
[VC] OS Info 6 1 0 0
[VC] [v08.02.2010] In Open(\\JNBROOK\Videos\Clips\Josh's Phone\qikvideo-2010-0925-14-32-03.3gp)
[VC] FileFormat: mov,mp4,m4a,3gp,3g2,mj2, 124.682000
[VC] Video: mpeg4, 426160, 800x480, 48.000000
[VC] Audio: libopencore_amrnb, 12800, 8000, 1
[VC] Title: Artist: Album: Year: 0 Track: 0
[VC] Out Open = S_OK
[VC] [v08.02.2010] In Open(\\JNBROOK\Videos\Clips\Josh's Phone\qikvideo-2010-0925-14-34-58.3gp)
[VC] FileFormat: mov,mp4,m4a,3gp,3g2,mj2, 134.363000

[VC]
[VC]
[VC]
[VC]

Video: mpeg4, 451491, 800x480, 48.000000


Audio: libopencore_amrnb, 12800, 8000, 1
Title: Artist: Album: Year: 0 Track: 0
Out Open = S_OK

[VC] ====== Start time: 9/27/2010, 0:43:15


[VC] Module VC Log Version = 1,6,13,342
[VC] OS Info 6 1 0 0
[VC] [v08.02.2010] In Open(\\JNBROOK\Videos\Clips\Josh's Phone\qikvideo-2010-0925-14-34-58.3gp)
[VC] FileFormat: mov,mp4,m4a,3gp,3g2,mj2, 134.363000
[VC] Video: mpeg4, 451491, 800x480, 48.000000
[VC] Audio: libopencore_amrnb, 12800, 8000, 1
[VC] Title: Artist: Album: Year: 0 Track: 0
[VC] Out Open = S_OK
[VC] ====== Start time: 9/27/2010, 0:43:15
[VC] Module VC Log Version = 1,6,13,342
[VC] OS Info 6 1 0 0
[VC] [v08.02.2010] In Open(\\JNBROOK\Videos\Clips\Josh's Phone\qikvideo-2010-0925-14-34-58.3gp)
[VC] FileFormat: mov,mp4,m4a,3gp,3g2,mj2, 134.363000
[VC] Video: mpeg4, 451491, 800x480, 48.000000
[VC] Audio: libopencore_amrnb, 12800, 8000, 1
[VC] Title: Artist: Album: Year: 0 Track: 0
[VC] Out Open = S_OK
[VC] [v08.02.2010] In Open(\\JNBROOK\Videos\Clips\Josh's Phone\qikvideo-2010-0925-14-39-30.3gp)
[VC] FileFormat: mov,mp4,m4a,3gp,3g2,mj2, 66.682000
[VC] Video: mpeg4, 476316, 800x480, 48.000000
[VC] Audio: libopencore_amrnb, 12800, 8000, 1
[VC] Title: Artist: Album: Year: 0 Track: 0
[VC] Out Open = S_OK
[VC] ====== Start time: 9/27/2010, 0:43:15
[VC] Module VC Log Version = 1,6,13,342
[VC] OS Info 6 1 0 0
[VC] [v08.02.2010] In Open(\\JNBROOK\Videos\Clips\Josh's Phone\qikvideo-2010-0925-14-39-30.3gp)
[VC] FileFormat: mov,mp4,m4a,3gp,3g2,mj2, 66.682000
[VC] Video: mpeg4, 476316, 800x480, 48.000000
[VC] Audio: libopencore_amrnb, 12800, 8000, 1
[VC] Title: Artist: Album: Year: 0 Track: 0
[VC] Out Open = S_OK
[VC] ====== Start time: 9/27/2010, 0:43:15
[VC] Module VC Log Version = 1,6,13,342
[VC] OS Info 6 1 0 0
[VC] [v08.02.2010] In Open(\\JNBROOK\Videos\Clips\Josh's Phone\qikvideo-2010-0925-14-39-30.3gp)
[VC] FileFormat: mov,mp4,m4a,3gp,3g2,mj2, 66.682000
[VC] Video: mpeg4, 476316, 800x480, 48.000000
[VC] Audio: libopencore_amrnb, 12800, 8000, 1
[VC] Title: Artist: Album: Year: 0 Track: 0
[VC] Out Open = S_OK
[VC] [v08.02.2010] In Open(\\JNBROOK\Videos\Clips\Josh's Phone\qikvideo-2010-0925-14-47-09.3gp)
[VC] FileFormat: mov,mp4,m4a,3gp,3g2,mj2, 39.546000
[VC] Video: mpeg4, 437842, 800x480, 48.000000
[VC] Audio: libopencore_amrnb, 12800, 8000, 1

[VC] Title: Artist: Album: Year: 0 Track: 0


[VC] Out Open = S_OK
[VC] ====== Start time: 9/27/2010, 0:43:15
[VC] Module VC Log Version = 1,6,13,342
[VC] OS Info 6 1 0 0
[VC] [v08.02.2010] In Open(\\JNBROOK\Videos\Clips\Josh's Phone\qikvideo-2010-0925-14-47-09.3gp)
[VC] FileFormat: mov,mp4,m4a,3gp,3g2,mj2, 39.546000
[VC] Video: mpeg4, 437842, 800x480, 48.000000
[VC] Audio: libopencore_amrnb, 12800, 8000, 1
[VC] Title: Artist: Album: Year: 0 Track: 0
[VC] Out Open = S_OK
[VC] ====== Start time: 9/27/2010, 0:43:15
[VC] Module VC Log Version = 1,6,13,342
[VC] OS Info 6 1 0 0
[VC] [v08.02.2010] In Open(\\JNBROOK\Videos\Clips\Josh's Phone\qikvideo-2010-0925-14-47-09.3gp)
[VC] FileFormat: mov,mp4,m4a,3gp,3g2,mj2, 39.546000
[VC] Video: mpeg4, 437842, 800x480, 48.000000
[VC] Audio: libopencore_amrnb, 12800, 8000, 1
[VC] Title: Artist: Album: Year: 0 Track: 0
[VC] Out Open = S_OK
[VC] [v08.02.2010] In Open(\\JNBROOK\Videos\Clips\Josh's Phone\qikvideo-2010-0925-14-52-53.3gp)
[VC] FileFormat: mov,mp4,m4a,3gp,3g2,mj2, 235.683000
[VC] Video: mpeg4, 428203, 800x480, 48.000000
[VC] Audio: libopencore_amrnb, 12800, 8000, 1
[VC] Title: Artist: Album: Year: 0 Track: 0
[VC] Out Open = S_OK
[VC] ====== Start time: 9/27/2010, 0:43:16
[VC] Module VC Log Version = 1,6,13,342
[VC] OS Info 6 1 0 0
[VC] [v08.02.2010] In Open(\\JNBROOK\Videos\Clips\Josh's Phone\qikvideo-2010-0925-14-52-53.3gp)
[VC] FileFormat: mov,mp4,m4a,3gp,3g2,mj2, 235.683000
[VC] Video: mpeg4, 428203, 800x480, 48.000000
[VC] Audio: libopencore_amrnb, 12800, 8000, 1
[VC] Title: Artist: Album: Year: 0 Track: 0
[VC] Out Open = S_OK
[VC] ====== Start time: 9/27/2010, 0:43:16
[VC] Module VC Log Version = 1,6,13,342
[VC] OS Info 6 1 0 0
[VC] [v08.02.2010] In Open(\\JNBROOK\Videos\Clips\Josh's Phone\qikvideo-2010-0925-14-52-53.3gp)
[VC] FileFormat: mov,mp4,m4a,3gp,3g2,mj2, 235.683000
[VC] Video: mpeg4, 428203, 800x480, 48.000000
[VC] Audio: libopencore_amrnb, 12800, 8000, 1
[VC] Title: Artist: Album: Year: 0 Track: 0
[VC] Out Open = S_OK
[VC] [v08.02.2010] In Open(\\JNBROOK\Videos\Clips\Josh's Phone\qikvideo-2010-0926-08-15-08.3gp)
[VC] FileFormat: mov,mp4,m4a,3gp,3g2,mj2, 73.944000
[VC] Video: mpeg4, 424189, 800x480, 48.000000
[VC] Audio: libopencore_amrnb, 12800, 8000, 1
[VC] Title: Artist: Album: Year: 0 Track: 0
[VC] Out Open = S_OK

[VC] ====== Start time: 9/27/2010, 0:43:16


[VC] Module VC Log Version = 1,6,13,342
[VC] OS Info 6 1 0 0
[VC] [v08.02.2010] In Open(\\JNBROOK\Videos\Clips\Josh's Phone\qikvideo-2010-0926-08-15-08.3gp)
[VC] FileFormat: mov,mp4,m4a,3gp,3g2,mj2, 73.944000
[VC] Video: mpeg4, 424189, 800x480, 48.000000
[VC] Audio: libopencore_amrnb, 12800, 8000, 1
[VC] Title: Artist: Album: Year: 0 Track: 0
[VC] Out Open = S_OK
[VC] ====== Start time: 9/27/2010, 0:43:16
[VC] Module VC Log Version = 1,6,13,342
[VC] OS Info 6 1 0 0
[VC] [v08.02.2010] In Open(\\JNBROOK\Videos\Clips\Josh's Phone\qikvideo-2010-0926-08-15-08.3gp)
[VC] FileFormat: mov,mp4,m4a,3gp,3g2,mj2, 73.944000
[VC] Video: mpeg4, 424189, 800x480, 48.000000
[VC] Audio: libopencore_amrnb, 12800, 8000, 1
[VC] Title: Artist: Album: Year: 0 Track: 0
[VC] Out Open = S_OK
[VC] [v08.02.2010] In Open(\\JNBROOK\Videos\Clips\Josh's Phone\qikvideo-2010-0926-09-19-50.3gp)
[VC] FileFormat: mov,mp4,m4a,3gp,3g2,mj2, 81.739000
[VC] Video: mpeg4, 421256, 800x480, 48.000000
[VC] Audio: libopencore_amrnb, 12800, 8000, 1
[VC] Title: Artist: Album: Year: 0 Track: 0
[VC] Out Open = S_OK
[VC] ====== Start time: 9/27/2010, 0:43:16
[VC] Module VC Log Version = 1,6,13,342
[VC] OS Info 6 1 0 0
[VC] [v08.02.2010] In Open(\\JNBROOK\Videos\Clips\Josh's Phone\qikvideo-2010-0926-09-19-50.3gp)
[VC] FileFormat: mov,mp4,m4a,3gp,3g2,mj2, 81.739000
[VC] Video: mpeg4, 421256, 800x480, 48.000000
[VC] Audio: libopencore_amrnb, 12800, 8000, 1
[VC] Title: Artist: Album: Year: 0 Track: 0
[VC] Out Open = S_OK
[VC] ====== Start time: 9/27/2010, 0:43:16
[VC] Module VC Log Version = 1,6,13,342
[VC] OS Info 6 1 0 0
[VC] [v08.02.2010] In Open(\\JNBROOK\Videos\Clips\Josh's Phone\qikvideo-2010-0926-09-19-50.3gp)
[VC] FileFormat: mov,mp4,m4a,3gp,3g2,mj2, 81.739000
[VC] Video: mpeg4, 421256, 800x480, 48.000000
[VC] Audio: libopencore_amrnb, 12800, 8000, 1
[VC] Title: Artist: Album: Year: 0 Track: 0
[VC] Out Open = S_OK
[VC] [v08.02.2010] In Open(\\JNBROOK\Videos\Clips\Josh's Phone\qikvideo-2010-0926-10-02-51.3gp)
[VC] FileFormat: mov,mp4,m4a,3gp,3g2,mj2, 78.386000
[VC] Video: mpeg4, 421703, 800x480, 48.000000
[VC] Audio: libopencore_amrnb, 12800, 8000, 1
[VC] Title: Artist: Album: Year: 0 Track: 0
[VC] Out Open = S_OK
[VC] ====== Start time: 9/27/2010, 0:43:16

[VC] Module VC Log Version = 1,6,13,342


[VC] OS Info 6 1 0 0
[VC] [v08.02.2010] In Open(\\JNBROOK\Videos\Clips\Josh's Phone\qikvideo-2010-0926-10-02-51.3gp)
[VC] FileFormat: mov,mp4,m4a,3gp,3g2,mj2, 78.386000
[VC] Video: mpeg4, 421703, 800x480, 48.000000
[VC] Audio: libopencore_amrnb, 12800, 8000, 1
[VC] Title: Artist: Album: Year: 0 Track: 0
[VC] Out Open = S_OK
[VC] ====== Start time: 9/27/2010, 0:43:16
[VC] Module VC Log Version = 1,6,13,342
[VC] OS Info 6 1 0 0
[VC] [v08.02.2010] In Open(\\JNBROOK\Videos\Clips\Josh's Phone\qikvideo-2010-0926-10-02-51.3gp)
[VC] FileFormat: mov,mp4,m4a,3gp,3g2,mj2, 78.386000
[VC] Video: mpeg4, 421703, 800x480, 48.000000
[VC] Audio: libopencore_amrnb, 12800, 8000, 1
[VC] Title: Artist: Album: Year: 0 Track: 0
[VC] Out Open = S_OK
[VC] [v08.02.2010] In Open(\\JNBROOK\Videos\Clips\Josh's Phone\qikvideo-2010-0926-10-51-26.3gp)
[VC] FileFormat: mov,mp4,m4a,3gp,3g2,mj2, 122.284000
[VC] Video: mpeg4, 481230, 800x480, 48.000000
[VC] Audio: libopencore_amrnb, 12800, 8000, 1
[VC] Title: Artist: Album: Year: 0 Track: 0
[VC] Out Open = S_OK
[VC] ====== Start time: 9/27/2010, 0:43:16
[VC] Module VC Log Version = 1,6,13,342
[VC] OS Info 6 1 0 0
[VC] [v08.02.2010] In Open(\\JNBROOK\Videos\Clips\Josh's Phone\qikvideo-2010-0926-10-51-26.3gp)
[VC] FileFormat: mov,mp4,m4a,3gp,3g2,mj2, 122.284000
[VC] Video: mpeg4, 481230, 800x480, 48.000000
[VC] Audio: libopencore_amrnb, 12800, 8000, 1
[VC] Title: Artist: Album: Year: 0 Track: 0
[VC] Out Open = S_OK
[VC] ====== Start time: 9/27/2010, 0:43:16
[VC] Module VC Log Version = 1,6,13,342
[VC] OS Info 6 1 0 0
[VC] [v08.02.2010] In Open(\\JNBROOK\Videos\Clips\Josh's Phone\qikvideo-2010-0926-10-51-26.3gp)
[VC] FileFormat: mov,mp4,m4a,3gp,3g2,mj2, 122.284000
[VC] Video: mpeg4, 481230, 800x480, 48.000000
[VC] Audio: libopencore_amrnb, 12800, 8000, 1
[VC] Title: Artist: Album: Year: 0 Track: 0
[VC] Out Open = S_OK
[VC] [v08.02.2010] In Open(\\JNBROOK\Videos\Clips\Josh's Phone\qikvideo-2010-0926-10-54-46.3gp)
[VC] FileFormat: mov,mp4,m4a,3gp,3g2,mj2, 14.267000
[VC] Video: mpeg4, 454397, 800x480, 48.000000
[VC] Audio: libopencore_amrnb, 12800, 8000, 1
[VC] Title: Artist: Album: Year: 0 Track: 0
[VC] Out Open = S_OK
[VC] ====== Start time: 9/27/2010, 0:43:16
[VC] Module VC Log Version = 1,6,13,342
[VC] OS Info 6 1 0 0

[VC] [v08.02.2010] In Open(\\JNBROOK\Videos\Clips\Josh's Phone\qikvideo-2010-0926-10-54-46.3gp)


[VC] FileFormat: mov,mp4,m4a,3gp,3g2,mj2, 14.267000
[VC] Video: mpeg4, 454397, 800x480, 48.000000
[VC] Audio: libopencore_amrnb, 12800, 8000, 1
[VC] Title: Artist: Album: Year: 0 Track: 0
[VC] Out Open = S_OK
[VC] ====== Start time: 9/27/2010, 0:43:16
[VC] Module VC Log Version = 1,6,13,342
[VC] OS Info 6 1 0 0
[VC] [v08.02.2010] In Open(\\JNBROOK\Videos\Clips\Josh's Phone\qikvideo-2010-0926-10-54-46.3gp)
[VC] FileFormat: mov,mp4,m4a,3gp,3g2,mj2, 14.267000
[VC] Video: mpeg4, 454397, 800x480, 48.000000
[VC] Audio: libopencore_amrnb, 12800, 8000, 1
[VC] Title: Artist: Album: Year: 0 Track: 0
[VC] Out Open = S_OK
[VC] [v08.02.2010] In Open(\\JNBROOK\Videos\Clips\Josh's Phone\qikvideo-2010-0923-09-29-03.3gp)
[VC] FileFormat: mov,mp4,m4a,3gp,3g2,mj2, 72.794000
[VC] Video: mpeg4, 422588, 800x480, 48.000000
[VC] Audio: libopencore_amrnb, 12800, 8000, 1
[VC] Title: Artist: Album: Year: 0 Track: 0
[VC] Out Open = S_OK
[VC] Set output video format, input stream id: 0, id: 0, index: 0, format type:
1, width: 1073742544, height: 540, bit rate: 3000000, frame rate: 25.000000, pix
el format: 0, native format type: 0.
[VC] Set output audio format, input stream id: 1, id: 0, index: 0, format type:
1, bit rate: 256000, sample rate: 44100, channels: 2, sample format: 0, native f
ormat type: 0.
[VC] [v09.06.2010] Save \\jnbrook\Videos\Clips\Josh's Phone\qikvideo-2010-09-2309-29-03.avi
[VC] Input audio and video streams: 1, 1. Extended output audio and video stream
s: 1, 1
[VC] Extended regime to convert: yes
[VC] OutputVideoFormat: 1, 1, 720, 540, 25.000000, 3000000
[VC] OutputAudioFormat: 1, 256000, 44100, 2
[VC] OutTimeInterval: 0.000000, -1.000000
[VC] Corrected videoOutputWidth: 720, videoOutputHeight: 432
"C:\Program Files (x86)\Common Files\DVDVideoSoft\Dll\\ffmpeg.exe" -y -i "\\JNBR
OOK\Videos\Clips\Josh's Phone\qikvideo-2010-09-23-09-29-03.3gp" -map 0:0 -map 0:
1 -ss 0.00 -vcodec msmpeg4v2 -r 25.000000 -padtop 54 -padbottom 54 -s 720x432 -b
3000000 -aspect 4:3 -acodec libmp3lame -ab 256000 -ar 44100 -ac 2 -f avi "\\jnb
rook\Videos\Clips\Josh's Phone\qikvideo-2010-09-23-09-29-03.avi"
FFmpeg version r21343-www.DVDVideoSoft.com, Copyright (c) 2000-2010 Fabrice Bell
ard, et al.
built on Jan 26 2010 12:17:27 with gcc 4.2.4
libavutil
50. 7. 0 / 50. 7. 0
libavcodec
52.48. 0 / 52.48. 0
libavformat 52.47. 0 / 52.47. 0
libavdevice 52. 2. 0 / 52. 2. 0
libavfilter
1.17. 0 / 1.17. 0
libswscale
0. 8. 0 / 0. 8. 0
libpostproc 51. 2. 0 / 51. 2. 0
Input #0, mov,mp4,m4a,3gp,3g2,mj2, from '\\JNBROOK\Videos\Clips\Josh's Phone\qik

video-2010-09-23-09-29-03.3gp':
Metadata:
major_brand
: 3gp4
minor_version : 768
compatible_brands: 3gp4mp413gp6
copyright
:
copyright-eng :
Duration: 00:01:12.79, start: 0.000000, bitrate: 438 kb/s
Stream #0.0(eng): Video: mpeg4, yuv420p, 800x480 [PAR 1:1 DAR 5:3], 422 kb/s
, 29.01 fps, 48 tbr, 1k tbn, 48 tbc
Stream #0.1(eng): Audio: libopencore_amrnb, 8000 Hz, 1 channels, s16, 12 kb/
s
Output #0, avi, to '\\jnbrook\Videos\Clips\Josh's Phone\qikvideo-2010-09-23-09-2
9-03.avi':
Stream #0.0(eng): Video: msmpeg4v2, yuv420p, 720x540 [PAR 1:1 DAR 4:3], q=231, 3000 kb/s, 25 tbn, 25 tbc
Stream #0.1(eng): Audio: libmp3lame, 44100 Hz, 2 channels, s16, 256 kb/s
Stream mapping:
Stream #0.0 -> #0.0
Stream #0.1 -> #0.1
Press [q] to stop encoding
frame=Convert
[VC]
8 fps=
Success
0 q=2.0 size=
133kB time=0.52 bitrate=2102.0kbits/s
[VC] [v08.02.2010] In Open(\\JNBROOK\Videos\Clips\Josh's Phone\qikvideo-2010-0924-20-48-56.3gp)
[VC] FileFormat: mov,mp4,m4a,3gp,3g2,mj2, 21.128000
[VC] Video: mpeg4, 416629, 800x480, 48.000000
[VC] Audio: libopencore_amrnb, 12800, 8000, 1
[VC] Title: Artist: Album: Year: 0 Track: 0
[VC] Out Open = S_OK
[VC] Set output video format, input stream id: 0, id: 0, index: 0, format type:
1, width: 1073742544, height: 540, bit rate: 3000000, frame rate: 25.000000, pix
el format: 0, native format type: 0.
[VC] Set output audio format, input stream id: 1, id: 0, index: 0, format type:
1, bit rate: 256000, sample rate: 44100, channels: 2, sample format: 0, native f
ormat type: 0.
[VC] [v09.06.2010] Save \\jnbrook\Videos\Clips\Josh's Phone\qikvideo-2010-09-2420-48-56.avi
[VC] Input audio and video streams: 1, 1. Extended output audio and video stream
s: 1, 1
[VC] Extended regime to convert: yes
[VC] OutputVideoFormat: 1, 1, 720, 540, 25.000000, 3000000
[VC] OutputAudioFormat: 1, 256000, 44100, 2
[VC] OutTimeInterval: 0.000000, -1.000000
[VC] Corrected videoOutputWidth: 720, videoOutputHeight: 432
"C:\Program Files (x86)\Common Files\DVDVideoSoft\Dll\\ffmpeg.exe" -y -i "\\JNBR
OOK\Videos\Clips\Josh's Phone\qikvideo-2010-09-24-20-48-56.3gp" -map 0:0 -map 0:
1 -ss 0.00 -vcodec msmpeg4v2 -r 25.000000 -padtop 54 -padbottom 54 -s 720x432 -b
3000000 -aspect 4:3 -acodec libmp3lame -ab 256000 -ar 44100 -ac 2 -f avi "\\jnb
rook\Videos\Clips\Josh's Phone\qikvideo-2010-09-24-20-48-56.avi"
FFmpeg version r21343-www.DVDVideoSoft.com, Copyright (c) 2000-2010 Fabrice Bell
ard, et al.
built on Jan 26 2010 12:17:27 with gcc 4.2.4
libavutil
50. 7. 0 / 50. 7. 0
libavcodec
52.48. 0 / 52.48. 0

libavformat 52.47. 0 / 52.47. 0


libavdevice 52. 2. 0 / 52. 2. 0
libavfilter
1.17. 0 / 1.17. 0
libswscale
0. 8. 0 / 0. 8. 0
libpostproc 51. 2. 0 / 51. 2. 0
Input #0, mov,mp4,m4a,3gp,3g2,mj2, from '\\JNBROOK\Videos\Clips\Josh's Phone\qik
video-2010-09-24-20-48-56.3gp':
Metadata:
major_brand
: 3gp4
minor_version : 768
compatible_brands: 3gp4mp413gp6
copyright
:
copyright-eng :
Duration: 00:00:21.12, start: 0.000000, bitrate: 430 kb/s
Stream #0.0(eng): Video: mpeg4, yuv420p, 800x480 [PAR 1:1 DAR 5:3], 416 kb/s
, 9.89 fps, 48 tbr, 1k tbn, 48 tbc
Stream #0.1(eng): Audio: libopencore_amrnb, 8000 Hz, 1 channels, s16, 12 kb/
s
Output #0, avi, to '\\jnbrook\Videos\Clips\Josh's Phone\qikvideo-2010-09-24-20-4
8-56.avi':
Stream #0.0(eng): Video: msmpeg4v2, yuv420p, 720x540 [PAR 1:1 DAR 4:3], q=231, 3000 kb/s, 25 tbn, 25 tbc
Stream #0.1(eng): Audio: libmp3lame, 44100 Hz, 2 channels, s16, 256 kb/s
Stream mapping:
Stream #0.0 -> #0.0
Stream #0.1 -> #0.1
Press [q] to stop encoding
frame=Convert
[VC]
5 fps=
Success
0 q=2.0 size=
88kB time=0.76 bitrate= 949.7kbits/s
[VC] [v08.02.2010] In Open(\\JNBROOK\Videos\Clips\Josh's Phone\qikvideo-2010-0925-14-20-55.3gp)
[VC] FileFormat: mov,mp4,m4a,3gp,3g2,mj2, 96.726000
[VC] Video: mpeg4, 421614, 800x480, 48.000000
[VC] Audio: libopencore_amrnb, 12800, 8000, 1
[VC] Title: Artist: Album: Year: 0 Track: 0
[VC] Out Open = S_OK
[VC] Set output video format, input stream id: 0, id: 0, index: 0, format type:
1, width: 1073742544, height: 540, bit rate: 3000000, frame rate: 25.000000, pix
el format: 0, native format type: 0.
[VC] Set output audio format, input stream id: 1, id: 0, index: 0, format type:
1, bit rate: 256000, sample rate: 44100, channels: 2, sample format: 0, native f
ormat type: 0.
[VC] [v09.06.2010] Save \\jnbrook\Videos\Clips\Josh's Phone\qikvideo-2010-09-2514-20-55.avi
[VC] Input audio and video streams: 1, 1. Extended output audio and video stream
s: 1, 1
[VC] Extended regime to convert: yes
[VC] OutputVideoFormat: 1, 1, 720, 540, 25.000000, 3000000
[VC] OutputAudioFormat: 1, 256000, 44100, 2
[VC] OutTimeInterval: 0.000000, -1.000000
[VC] Corrected videoOutputWidth: 720, videoOutputHeight: 432
"C:\Program Files (x86)\Common Files\DVDVideoSoft\Dll\\ffmpeg.exe" -y -i "\\JNBR
OOK\Videos\Clips\Josh's Phone\qikvideo-2010-09-25-14-20-55.3gp" -map 0:0 -map 0:
1 -ss 0.00 -vcodec msmpeg4v2 -r 25.000000 -padtop 54 -padbottom 54 -s 720x432 -b
3000000 -aspect 4:3 -acodec libmp3lame -ab 256000 -ar 44100 -ac 2 -f avi "\\jnb

rook\Videos\Clips\Josh's Phone\qikvideo-2010-09-25-14-20-55.avi"
FFmpeg version r21343-www.DVDVideoSoft.com, Copyright (c) 2000-2010 Fabrice Bell
ard, et al.
built on Jan 26 2010 12:17:27 with gcc 4.2.4
libavutil
50. 7. 0 / 50. 7. 0
libavcodec
52.48. 0 / 52.48. 0
libavformat 52.47. 0 / 52.47. 0
libavdevice 52. 2. 0 / 52. 2. 0
libavfilter
1.17. 0 / 1.17. 0
libswscale
0. 8. 0 / 0. 8. 0
libpostproc 51. 2. 0 / 51. 2. 0
Input #0, mov,mp4,m4a,3gp,3g2,mj2, from '\\JNBROOK\Videos\Clips\Josh's Phone\qik
video-2010-09-25-14-20-55.3gp':
Metadata:
major_brand
: 3gp4
minor_version : 768
compatible_brands: 3gp4mp413gp6
copyright
:
copyright-eng :
Duration: 00:01:36.72, start: 0.000000, bitrate: 437 kb/s
Stream #0.0(eng): Video: mpeg4, yuv420p, 800x480 [PAR 1:1 DAR 5:3], 421 kb/s
, 29.97 fps, 48 tbr, 1k tbn, 48 tbc
Stream #0.1(eng): Audio: libopencore_amrnb, 8000 Hz, 1 channels, s16, 12 kb/
s
Output #0, avi, to '\\jnbrook\Videos\Clips\Josh's Phone\qikvideo-2010-09-25-14-2
0-55.avi':
Stream #0.0(eng): Video: msmpeg4v2, yuv420p, 720x540 [PAR 1:1 DAR 4:3], q=231, 3000 kb/s, 25 tbn, 25 tbc
Stream #0.1(eng): Audio: libmp3lame, 44100 Hz, 2 channels, s16, 256 kb/s
Stream mapping:
Stream #0.0 -> #0.0
Stream #0.1 -> #0.1
Press [q] to stop encoding
[msmpeg4v2 @ 0x615dd0]warning, clipping 1 dct coefficients to -127..127
frame= 10 fps= 0 q=2.0 size=
202kB time=0.56 bitrate=2949.1kbits/s dup=0
[VC] Convert Success
drop=2
[VC] [v08.02.2010] In Open(\\JNBROOK\Videos\Clips\Josh's Phone\qikvideo-2010-0925-14-24-21.3gp)
[VC] FileFormat: mov,mp4,m4a,3gp,3g2,mj2, 59.843000
[VC] Video: mpeg4, 471287, 800x480, 48.000000
[VC] Audio: libopencore_amrnb, 12800, 8000, 1
[VC] Title: Artist: Album: Year: 0 Track: 0
[VC] Out Open = S_OK
[VC] Set output video format, input stream id: 0, id: 0, index: 0, format type:
1, width: 1073742544, height: 540, bit rate: 3000000, frame rate: 25.000000, pix
el format: 0, native format type: 0.
[VC] Set output audio format, input stream id: 1, id: 0, index: 0, format type:
1, bit rate: 256000, sample rate: 44100, channels: 2, sample format: 0, native f
ormat type: 0.
[VC] [v09.06.2010] Save \\jnbrook\Videos\Clips\Josh's Phone\qikvideo-2010-09-2514-24-21.avi
[VC] Input audio and video streams: 1, 1. Extended output audio and video stream
s: 1, 1
[VC] Extended regime to convert: yes

[VC] OutputVideoFormat: 1, 1, 720, 540, 25.000000, 3000000


[VC] OutputAudioFormat: 1, 256000, 44100, 2
[VC] OutTimeInterval: 0.000000, -1.000000
[VC] Corrected videoOutputWidth: 720, videoOutputHeight: 432
"C:\Program Files (x86)\Common Files\DVDVideoSoft\Dll\\ffmpeg.exe" -y -i "\\JNBR
OOK\Videos\Clips\Josh's Phone\qikvideo-2010-09-25-14-24-21.3gp" -map 0:0 -map 0:
1 -ss 0.00 -vcodec msmpeg4v2 -r 25.000000 -padtop 54 -padbottom 54 -s 720x432 -b
3000000 -aspect 4:3 -acodec libmp3lame -ab 256000 -ar 44100 -ac 2 -f avi "\\jnb
rook\Videos\Clips\Josh's Phone\qikvideo-2010-09-25-14-24-21.avi"
FFmpeg version r21343-www.DVDVideoSoft.com, Copyright (c) 2000-2010 Fabrice Bell
ard, et al.
built on Jan 26 2010 12:17:27 with gcc 4.2.4
libavutil
50. 7. 0 / 50. 7. 0
libavcodec
52.48. 0 / 52.48. 0
libavformat 52.47. 0 / 52.47. 0
libavdevice 52. 2. 0 / 52. 2. 0
libavfilter
1.17. 0 / 1.17. 0
libswscale
0. 8. 0 / 0. 8. 0
libpostproc 51. 2. 0 / 51. 2. 0
Input #0, mov,mp4,m4a,3gp,3g2,mj2, from '\\JNBROOK\Videos\Clips\Josh's Phone\qik
video-2010-09-25-14-24-21.3gp':
Metadata:
major_brand
: 3gp4
minor_version : 768
compatible_brands: 3gp4mp413gp6
copyright
:
copyright-eng :
Duration: 00:00:59.84, start: 0.000000, bitrate: 486 kb/s
Stream #0.0(eng): Video: mpeg4, yuv420p, 800x480 [PAR 1:1 DAR 5:3], 471 kb/s
, 29.93 fps, 48 tbr, 1k tbn, 48 tbc
Stream #0.1(eng): Audio: libopencore_amrnb, 8000 Hz, 1 channels, s16, 12 kb/
s
Output #0, avi, to '\\jnbrook\Videos\Clips\Josh's Phone\qikvideo-2010-09-25-14-2
4-21.avi':
Stream #0.0(eng): Video: msmpeg4v2, yuv420p, 720x540 [PAR 1:1 DAR 4:3], q=231, 3000 kb/s, 25 tbn, 25 tbc
Stream #0.1(eng): Audio: libmp3lame, 44100 Hz, 2 channels, s16, 256 kb/s
Stream mapping:
Stream #0.0 -> #0.0
Stream #0.1 -> #0.1
Press [q] to stop encoding
[msmpeg4v2 @ 0x4914f0]warning, clipping 1 dct coefficients to -127..127
frame= 13 fps= 0 q=1.6 size=
321kB time=0.72 bitrate=3651.0kbits/s dup=0
[VC] Convert Success
drop=2
[VC] [v08.02.2010] In Open(\\JNBROOK\Videos\Clips\Josh's Phone\qikvideo-2010-0925-14-26-03.3gp)
[VC] FileFormat: mov,mp4,m4a,3gp,3g2,mj2, 245.227000
[VC] Video: mpeg4, 470624, 800x480, 48.000000
[VC] Audio: libopencore_amrnb, 12800, 8000, 1
[VC] Title: Artist: Album: Year: 0 Track: 0
[VC] Out Open = S_OK
[VC] Set output video format, input stream id: 0, id: 0, index: 0, format type:
1, width: 1073742544, height: 540, bit rate: 3000000, frame rate: 25.000000, pix
el format: 0, native format type: 0.
[VC] Set output audio format, input stream id: 1, id: 0, index: 0, format type:
1, bit rate: 256000, sample rate: 44100, channels: 2, sample format: 0, native f
ormat type: 0.

[VC] [v09.06.2010] Save \\jnbrook\Videos\Clips\Josh's Phone\qikvideo-2010-09-2514-26-03.avi


[VC] Input audio and video streams: 1, 1. Extended output audio and video stream
s: 1, 1
[VC] Extended regime to convert: yes
[VC] OutputVideoFormat: 1, 1, 720, 540, 25.000000, 3000000
[VC] OutputAudioFormat: 1, 256000, 44100, 2
[VC] OutTimeInterval: 0.000000, -1.000000
[VC] Corrected videoOutputWidth: 720, videoOutputHeight: 432
"C:\Program Files (x86)\Common Files\DVDVideoSoft\Dll\\ffmpeg.exe" -y -i "\\JNBR
OOK\Videos\Clips\Josh's Phone\qikvideo-2010-09-25-14-26-03.3gp" -map 0:0 -map 0:
1 -ss 0.00 -vcodec msmpeg4v2 -r 25.000000 -padtop 54 -padbottom 54 -s 720x432 -b
3000000 -aspect 4:3 -acodec libmp3lame -ab 256000 -ar 44100 -ac 2 -f avi "\\jnb
rook\Videos\Clips\Josh's Phone\qikvideo-2010-09-25-14-26-03.avi"
FFmpeg version r21343-www.DVDVideoSoft.com, Copyright (c) 2000-2010 Fabrice Bell
ard, et al.
built on Jan 26 2010 12:17:27 with gcc 4.2.4
libavutil
50. 7. 0 / 50. 7. 0
libavcodec
52.48. 0 / 52.48. 0
libavformat 52.47. 0 / 52.47. 0
libavdevice 52. 2. 0 / 52. 2. 0
libavfilter
1.17. 0 / 1.17. 0
libswscale
0. 8. 0 / 0. 8. 0
libpostproc 51. 2. 0 / 51. 2. 0
Input #0, mov,mp4,m4a,3gp,3g2,mj2, from '\\JNBROOK\Videos\Clips\Josh's Phone\qik
video-2010-09-25-14-26-03.3gp':
Metadata:
major_brand
: 3gp4
minor_version : 768
compatible_brands: 3gp4mp413gp6
copyright
:
copyright-eng :
Duration: 00:04:05.22, start: 0.000000, bitrate: 486 kb/s
Stream #0.0(eng): Video: mpeg4, yuv420p, 800x480 [PAR 1:1 DAR 5:3], 470 kb/s
, 29.98 fps, 48 tbr, 1k tbn, 48 tbc
Stream #0.1(eng): Audio: libopencore_amrnb, 8000 Hz, 1 channels, s16, 12 kb/
s
Output #0, avi, to '\\jnbrook\Videos\Clips\Josh's Phone\qikvideo-2010-09-25-14-2
6-03.avi':
Stream #0.0(eng): Video: msmpeg4v2, yuv420p, 720x540 [PAR 1:1 DAR 4:3], q=231, 3000 kb/s, 25 tbn, 25 tbc
Stream #0.1(eng): Audio: libmp3lame, 44100 Hz, 2 channels, s16, 256 kb/s
Stream mapping:
Stream #0.0 -> #0.0
Stream #0.1 -> #0.1
Press [q] to stop encoding
frame= 14 fps= 0 q=2.0 size=
372kB time=0.72 bitrate=4237.0kbits/s dup=0
[VC] Convert Success
drop=2
[VC] [v08.02.2010] In Open(\\JNBROOK\Videos\Clips\Josh's Phone\qikvideo-2010-0925-14-32-03.3gp)
[VC] FileFormat: mov,mp4,m4a,3gp,3g2,mj2, 124.682000
[VC] Video: mpeg4, 426160, 800x480, 48.000000
[VC] Audio: libopencore_amrnb, 12800, 8000, 1
[VC] Title: Artist: Album: Year: 0 Track: 0
[VC] Out Open = S_OK

[VC] Set output video format, input stream id: 0, id: 0, index: 0, format type:
1, width: 1073742544, height: 540, bit rate: 3000000, frame rate: 25.000000, pix
el format: 0, native format type: 0.
[VC] Set output audio format, input stream id: 1, id: 0, index: 0, format type:
1, bit rate: 256000, sample rate: 44100, channels: 2, sample format: 0, native f
ormat type: 0.
[VC] [v09.06.2010] Save \\jnbrook\Videos\Clips\Josh's Phone\qikvideo-2010-09-2514-32-03.avi
[VC] Input audio and video streams: 1, 1. Extended output audio and video stream
s: 1, 1
[VC] Extended regime to convert: yes
[VC] OutputVideoFormat: 1, 1, 720, 540, 25.000000, 3000000
[VC] OutputAudioFormat: 1, 256000, 44100, 2
[VC] OutTimeInterval: 0.000000, -1.000000
[VC] Corrected videoOutputWidth: 720, videoOutputHeight: 432
"C:\Program Files (x86)\Common Files\DVDVideoSoft\Dll\\ffmpeg.exe" -y -i "\\JNBR
OOK\Videos\Clips\Josh's Phone\qikvideo-2010-09-25-14-32-03.3gp" -map 0:0 -map 0:
1 -ss 0.00 -vcodec msmpeg4v2 -r 25.000000 -padtop 54 -padbottom 54 -s 720x432 -b
3000000 -aspect 4:3 -acodec libmp3lame -ab 256000 -ar 44100 -ac 2 -f avi "\\jnb
rook\Videos\Clips\Josh's Phone\qikvideo-2010-09-25-14-32-03.avi"
FFmpeg version r21343-www.DVDVideoSoft.com, Copyright (c) 2000-2010 Fabrice Bell
ard, et al.
built on Jan 26 2010 12:17:27 with gcc 4.2.4
libavutil
50. 7. 0 / 50. 7. 0
libavcodec
52.48. 0 / 52.48. 0
libavformat 52.47. 0 / 52.47. 0
libavdevice 52. 2. 0 / 52. 2. 0
libavfilter
1.17. 0 / 1.17. 0
libswscale
0. 8. 0 / 0. 8. 0
libpostproc 51. 2. 0 / 51. 2. 0
Input #0, mov,mp4,m4a,3gp,3g2,mj2, from '\\JNBROOK\Videos\Clips\Josh's Phone\qik
video-2010-09-25-14-32-03.3gp':
Metadata:
major_brand
: 3gp4
minor_version : 768
compatible_brands: 3gp4mp413gp6
copyright
:
copyright-eng :
Duration: 00:02:04.68, start: 0.000000, bitrate: 441 kb/s
Stream #0.0(eng): Video: mpeg4, yuv420p, 800x480 [PAR 1:1 DAR 5:3], 426 kb/s
, 29.98 fps, 48 tbr, 1k tbn, 48 tbc
Stream #0.1(eng): Audio: libopencore_amrnb, 8000 Hz, 1 channels, s16, 12 kb/
s
Output #0, avi, to '\\jnbrook\Videos\Clips\Josh's Phone\qikvideo-2010-09-25-14-3
2-03.avi':
Stream #0.0(eng): Video: msmpeg4v2, yuv420p, 720x540 [PAR 1:1 DAR 4:3], q=231, 3000 kb/s, 25 tbn, 25 tbc
Stream #0.1(eng): Audio: libmp3lame, 44100 Hz, 2 channels, s16, 256 kb/s
Stream mapping:
Stream #0.0 -> #0.0
Stream #0.1 -> #0.1
Press [q] to stop encoding
frame= 15 fps= 0 q=2.0 size=
279kB time=0.76 bitrate=3007.6kbits/s dup=0
[VC] Convert Success
drop=2

[VC] [v08.02.2010] In Open(\\JNBROOK\Videos\Clips\Josh's Phone\qikvideo-2010-0925-14-34-58.3gp)


[VC] FileFormat: mov,mp4,m4a,3gp,3g2,mj2, 134.363000
[VC] Video: mpeg4, 451491, 800x480, 48.000000
[VC] Audio: libopencore_amrnb, 12800, 8000, 1
[VC] Title: Artist: Album: Year: 0 Track: 0
[VC] Out Open = S_OK
[VC] Set output video format, input stream id: 0, id: 0, index: 0, format type:
1, width: 1073742544, height: 540, bit rate: 3000000, frame rate: 25.000000, pix
el format: 0, native format type: 0.
[VC] Set output audio format, input stream id: 1, id: 0, index: 0, format type:
1, bit rate: 256000, sample rate: 44100, channels: 2, sample format: 0, native f
ormat type: 0.
[VC] [v09.06.2010] Save \\jnbrook\Videos\Clips\Josh's Phone\qikvideo-2010-09-2514-34-58.avi
[VC] Input audio and video streams: 1, 1. Extended output audio and video stream
s: 1, 1
[VC] Extended regime to convert: yes
[VC] OutputVideoFormat: 1, 1, 720, 540, 25.000000, 3000000
[VC] OutputAudioFormat: 1, 256000, 44100, 2
[VC] OutTimeInterval: 0.000000, -1.000000
[VC] Corrected videoOutputWidth: 720, videoOutputHeight: 432
"C:\Program Files (x86)\Common Files\DVDVideoSoft\Dll\\ffmpeg.exe" -y -i "\\JNBR
OOK\Videos\Clips\Josh's Phone\qikvideo-2010-09-25-14-34-58.3gp" -map 0:0 -map 0:
1 -ss 0.00 -vcodec msmpeg4v2 -r 25.000000 -padtop 54 -padbottom 54 -s 720x432 -b
3000000 -aspect 4:3 -acodec libmp3lame -ab 256000 -ar 44100 -ac 2 -f avi "\\jnb
rook\Videos\Clips\Josh's Phone\qikvideo-2010-09-25-14-34-58.avi"
FFmpeg version r21343-www.DVDVideoSoft.com, Copyright (c) 2000-2010 Fabrice Bell
ard, et al.
built on Jan 26 2010 12:17:27 with gcc 4.2.4
libavutil
50. 7. 0 / 50. 7. 0
libavcodec
52.48. 0 / 52.48. 0
libavformat 52.47. 0 / 52.47. 0
libavdevice 52. 2. 0 / 52. 2. 0
libavfilter
1.17. 0 / 1.17. 0
libswscale
0. 8. 0 / 0. 8. 0
libpostproc 51. 2. 0 / 51. 2. 0
Input #0, mov,mp4,m4a,3gp,3g2,mj2, from '\\JNBROOK\Videos\Clips\Josh's Phone\qik
video-2010-09-25-14-34-58.3gp':
Metadata:
major_brand
: 3gp4
minor_version : 768
compatible_brands: 3gp4mp413gp6
copyright
:
copyright-eng :
Duration: 00:02:14.36, start: 0.000000, bitrate: 466 kb/s
Stream #0.0(eng): Video: mpeg4, yuv420p, 800x480 [PAR 1:1 DAR 5:3], 451 kb/s
, 29.96 fps, 48 tbr, 1k tbn, 48 tbc
Stream #0.1(eng): Audio: libopencore_amrnb, 8000 Hz, 1 channels, s16, 12 kb/
s
Output #0, avi, to '\\jnbrook\Videos\Clips\Josh's Phone\qikvideo-2010-09-25-14-3
4-58.avi':
Stream #0.0(eng): Video: msmpeg4v2, yuv420p, 720x540 [PAR 1:1 DAR 4:3], q=231, 3000 kb/s, 25 tbn, 25 tbc
Stream #0.1(eng): Audio: libmp3lame, 44100 Hz, 2 channels, s16, 256 kb/s
Stream mapping:

Stream #0.0 -> #0.0


Stream #0.1 -> #0.1
Press [q] to stop encoding
[msmpeg4v2 @ 0x86df50]warning, clipping 1 dct coefficients to -127..127
frame= 15 fps= 0 q=2.2 size=
420kB time=0.80 bitrate=4301.2kbits/s dup=0
[VC] Convert Success
drop=3
[VC] [v08.02.2010] In Open(\\JNBROOK\Videos\Clips\Josh's Phone\qikvideo-2010-0925-14-39-30.3gp)
[VC] FileFormat: mov,mp4,m4a,3gp,3g2,mj2, 66.682000
[VC] Video: mpeg4, 476316, 800x480, 48.000000
[VC] Audio: libopencore_amrnb, 12800, 8000, 1
[VC] Title: Artist: Album: Year: 0 Track: 0
[VC] Out Open = S_OK
[VC] Set output video format, input stream id: 0, id: 0, index: 0, format type:
1, width: 1073742544, height: 540, bit rate: 3000000, frame rate: 25.000000, pix
el format: 0, native format type: 0.
[VC] Set output audio format, input stream id: 1, id: 0, index: 0, format type:
1, bit rate: 256000, sample rate: 44100, channels: 2, sample format: 0, native f
ormat type: 0.
[VC] [v09.06.2010] Save \\jnbrook\Videos\Clips\Josh's Phone\qikvideo-2010-09-2514-39-30.avi
[VC] Input audio and video streams: 1, 1. Extended output audio and video stream
s: 1, 1
[VC] Extended regime to convert: yes
[VC] OutputVideoFormat: 1, 1, 720, 540, 25.000000, 3000000
[VC] OutputAudioFormat: 1, 256000, 44100, 2
[VC] OutTimeInterval: 0.000000, -1.000000
[VC] Corrected videoOutputWidth: 720, videoOutputHeight: 432
"C:\Program Files (x86)\Common Files\DVDVideoSoft\Dll\\ffmpeg.exe" -y -i "\\JNBR
OOK\Videos\Clips\Josh's Phone\qikvideo-2010-09-25-14-39-30.3gp" -map 0:0 -map 0:
1 -ss 0.00 -vcodec msmpeg4v2 -r 25.000000 -padtop 54 -padbottom 54 -s 720x432 -b
3000000 -aspect 4:3 -acodec libmp3lame -ab 256000 -ar 44100 -ac 2 -f avi "\\jnb
rook\Videos\Clips\Josh's Phone\qikvideo-2010-09-25-14-39-30.avi"
FFmpeg version r21343-www.DVDVideoSoft.com, Copyright (c) 2000-2010 Fabrice Bell
ard, et al.
built on Jan 26 2010 12:17:27 with gcc 4.2.4
libavutil
50. 7. 0 / 50. 7. 0
libavcodec
52.48. 0 / 52.48. 0
libavformat 52.47. 0 / 52.47. 0
libavdevice 52. 2. 0 / 52. 2. 0
libavfilter
1.17. 0 / 1.17. 0
libswscale
0. 8. 0 / 0. 8. 0
libpostproc 51. 2. 0 / 51. 2. 0
Input #0, mov,mp4,m4a,3gp,3g2,mj2, from '\\JNBROOK\Videos\Clips\Josh's Phone\qik
video-2010-09-25-14-39-30.3gp':
Metadata:
major_brand
: 3gp4
minor_version : 768
compatible_brands: 3gp4mp413gp6
copyright
:
copyright-eng :
Duration: 00:01:06.68, start: 0.000000, bitrate: 491 kb/s
Stream #0.0(eng): Video: mpeg4, yuv420p, 800x480 [PAR 1:1 DAR 5:3], 476 kb/s
, 29.96 fps, 48 tbr, 1k tbn, 48 tbc

Stream #0.1(eng): Audio: libopencore_amrnb, 8000 Hz, 1 channels, s16, 12 kb/


s
Output #0, avi, to '\\jnbrook\Videos\Clips\Josh's Phone\qikvideo-2010-09-25-14-3
9-30.avi':
Stream #0.0(eng): Video: msmpeg4v2, yuv420p, 720x540 [PAR 1:1 DAR 4:3], q=231, 3000 kb/s, 25 tbn, 25 tbc
Stream #0.1(eng): Audio: libmp3lame, 44100 Hz, 2 channels, s16, 256 kb/s
Stream mapping:
Stream #0.0 -> #0.0
Stream #0.1 -> #0.1
Press [q] to stop encoding
[msmpeg4v2 @ 0x2564270]warning, clipping 1 dct coefficients to -127..127
frame=
9 fps= 0 q=3.9 size=
366kB time=0.52 bitrate=5772.8kbits/s dup=0
[VC] Convert Success
drop=1
[VC] [v08.02.2010] In Open(\\JNBROOK\Videos\Clips\Josh's Phone\qikvideo-2010-0925-14-47-09.3gp)
[VC] FileFormat: mov,mp4,m4a,3gp,3g2,mj2, 39.546000
[VC] Video: mpeg4, 437842, 800x480, 48.000000
[VC] Audio: libopencore_amrnb, 12800, 8000, 1
[VC] Title: Artist: Album: Year: 0 Track: 0
[VC] Out Open = S_OK
[VC] Set output video format, input stream id: 0, id: 0, index: 0, format type:
1, width: 1073742544, height: 540, bit rate: 3000000, frame rate: 25.000000, pix
el format: 0, native format type: 0.
[VC] Set output audio format, input stream id: 1, id: 0, index: 0, format type:
1, bit rate: 256000, sample rate: 44100, channels: 2, sample format: 0, native f
ormat type: 0.
[VC] [v09.06.2010] Save \\jnbrook\Videos\Clips\Josh's Phone\qikvideo-2010-09-2514-47-09.avi
[VC] Input audio and video streams: 1, 1. Extended output audio and video stream
s: 1, 1
[VC] Extended regime to convert: yes
[VC] OutputVideoFormat: 1, 1, 720, 540, 25.000000, 3000000
[VC] OutputAudioFormat: 1, 256000, 44100, 2
[VC] OutTimeInterval: 0.000000, -1.000000
[VC] Corrected videoOutputWidth: 720, videoOutputHeight: 432
"C:\Program Files (x86)\Common Files\DVDVideoSoft\Dll\\ffmpeg.exe" -y -i "\\JNBR
OOK\Videos\Clips\Josh's Phone\qikvideo-2010-09-25-14-47-09.3gp" -map 0:0 -map 0:
1 -ss 0.00 -vcodec msmpeg4v2 -r 25.000000 -padtop 54 -padbottom 54 -s 720x432 -b
3000000 -aspect 4:3 -acodec libmp3lame -ab 256000 -ar 44100 -ac 2 -f avi "\\jnb
rook\Videos\Clips\Josh's Phone\qikvideo-2010-09-25-14-47-09.avi"
FFmpeg version r21343-www.DVDVideoSoft.com, Copyright (c) 2000-2010 Fabrice Bell
ard, et al.
built on Jan 26 2010 12:17:27 with gcc 4.2.4
libavutil
50. 7. 0 / 50. 7. 0
libavcodec
52.48. 0 / 52.48. 0
libavformat 52.47. 0 / 52.47. 0
libavdevice 52. 2. 0 / 52. 2. 0
libavfilter
1.17. 0 / 1.17. 0
libswscale
0. 8. 0 / 0. 8. 0
libpostproc 51. 2. 0 / 51. 2. 0
Input #0, mov,mp4,m4a,3gp,3g2,mj2, from '\\JNBROOK\Videos\Clips\Josh's Phone\qik
video-2010-09-25-14-47-09.3gp':
Metadata:

major_brand
: 3gp4
minor_version : 768
compatible_brands: 3gp4mp413gp6
copyright
:
copyright-eng :
Duration: 00:00:39.54, start: 0.000000, bitrate: 453 kb/s
Stream #0.0(eng): Video: mpeg4, yuv420p, 800x480 [PAR 1:1 DAR 5:3], 437 kb/s
, 29.89 fps, 48 tbr, 1k tbn, 48 tbc
Stream #0.1(eng): Audio: libopencore_amrnb, 8000 Hz, 1 channels, s16, 12 kb/
s
Output #0, avi, to '\\jnbrook\Videos\Clips\Josh's Phone\qikvideo-2010-09-25-14-4
7-09.avi':
Stream #0.0(eng): Video: msmpeg4v2, yuv420p, 720x540 [PAR 1:1 DAR 4:3], q=231, 3000 kb/s, 25 tbn, 25 tbc
Stream #0.1(eng): Audio: libmp3lame, 44100 Hz, 2 channels, s16, 256 kb/s
Stream mapping:
Stream #0.0 -> #0.0
Stream #0.1 -> #0.1
Press [q] to stop encoding
[msmpeg4v2 @ 0x29b4dd0]warning, clipping 1 dct coefficients to -127..127
frame= 19 fps= 0 q=2.2 size=
10kB time=0.92 bitrate= 86.8kbits/s dup=0
[VC] Convert Success
drop=3
[VC] [v08.02.2010] In Open(\\JNBROOK\Videos\Clips\Josh's Phone\qikvideo-2010-0925-14-52-53.3gp)
[VC] FileFormat: mov,mp4,m4a,3gp,3g2,mj2, 235.683000
[VC] Video: mpeg4, 428203, 800x480, 48.000000
[VC] Audio: libopencore_amrnb, 12800, 8000, 1
[VC] Title: Artist: Album: Year: 0 Track: 0
[VC] Out Open = S_OK
[VC] Set output video format, input stream id: 0, id: 0, index: 0, format type:
1, width: 1073742544, height: 540, bit rate: 3000000, frame rate: 25.000000, pix
el format: 0, native format type: 0.
[VC] Set output audio format, input stream id: 1, id: 0, index: 0, format type:
1, bit rate: 256000, sample rate: 44100, channels: 2, sample format: 0, native f
ormat type: 0.
[VC] [v09.06.2010] Save \\jnbrook\Videos\Clips\Josh's Phone\qikvideo-2010-09-2514-52-53.avi
[VC] Input audio and video streams: 1, 1. Extended output audio and video stream
s: 1, 1
[VC] Extended regime to convert: yes
[VC] OutputVideoFormat: 1, 1, 720, 540, 25.000000, 3000000
[VC] OutputAudioFormat: 1, 256000, 44100, 2
[VC] OutTimeInterval: 0.000000, -1.000000
[VC] Corrected videoOutputWidth: 720, videoOutputHeight: 432
"C:\Program Files (x86)\Common Files\DVDVideoSoft\Dll\\ffmpeg.exe" -y -i "\\JNBR
OOK\Videos\Clips\Josh's Phone\qikvideo-2010-09-25-14-52-53.3gp" -map 0:0 -map 0:
1 -ss 0.00 -vcodec msmpeg4v2 -r 25.000000 -padtop 54 -padbottom 54 -s 720x432 -b
3000000 -aspect 4:3 -acodec libmp3lame -ab 256000 -ar 44100 -ac 2 -f avi "\\jnb
rook\Videos\Clips\Josh's Phone\qikvideo-2010-09-25-14-52-53.avi"
FFmpeg version r21343-www.DVDVideoSoft.com, Copyright (c) 2000-2010 Fabrice Bell
ard, et al.
built on Jan 26 2010 12:17:27 with gcc 4.2.4
libavutil
50. 7. 0 / 50. 7. 0
libavcodec
52.48. 0 / 52.48. 0

libavformat 52.47. 0 / 52.47. 0


libavdevice 52. 2. 0 / 52. 2. 0
libavfilter
1.17. 0 / 1.17. 0
libswscale
0. 8. 0 / 0. 8. 0
libpostproc 51. 2. 0 / 51. 2. 0
Input #0, mov,mp4,m4a,3gp,3g2,mj2, from '\\JNBROOK\Videos\Clips\Josh's Phone\qik
video-2010-09-25-14-52-53.3gp':
Metadata:
major_brand
: 3gp4
minor_version : 768
compatible_brands: 3gp4mp413gp6
copyright
:
copyright-eng :
Duration: 00:03:55.68, start: 0.000000, bitrate: 443 kb/s
Stream #0.0(eng): Video: mpeg4, yuv420p, 800x480 [PAR 1:1 DAR 5:3], 428 kb/s
, 29.97 fps, 48 tbr, 1k tbn, 48 tbc
Stream #0.1(eng): Audio: libopencore_amrnb, 8000 Hz, 1 channels, s16, 12 kb/
s
Output #0, avi, to '\\jnbrook\Videos\Clips\Josh's Phone\qikvideo-2010-09-25-14-5
2-53.avi':
Stream #0.0(eng): Video: msmpeg4v2, yuv420p, 720x540 [PAR 1:1 DAR 4:3], q=231, 3000 kb/s, 25 tbn, 25 tbc
Stream #0.1(eng): Audio: libmp3lame, 44100 Hz, 2 channels, s16, 256 kb/s
Stream mapping:
Stream #0.0 -> #0.0
Stream #0.1 -> #0.1
Press [q] to stop encoding
[msmpeg4v2 @ 0x3ffc00]warning, clipping 1 dct coefficients to -127..127
frame= 13 fps= 0 q=2.9 size=
412kB time=0.72 bitrate=4685.0kbits/s dup=0
[VC] Convert Success
drop=2
[VC] [v08.02.2010] In Open(\\JNBROOK\Videos\Clips\Josh's Phone\qikvideo-2010-0926-08-15-08.3gp)
[VC] FileFormat: mov,mp4,m4a,3gp,3g2,mj2, 73.944000
[VC] Video: mpeg4, 424189, 800x480, 48.000000
[VC] Audio: libopencore_amrnb, 12800, 8000, 1
[VC] Title: Artist: Album: Year: 0 Track: 0
[VC] Out Open = S_OK
[VC] Set output video format, input stream id: 0, id: 0, index: 0, format type:
1, width: 1073742544, height: 540, bit rate: 3000000, frame rate: 25.000000, pix
el format: 0, native format type: 0.
[VC] Set output audio format, input stream id: 1, id: 0, index: 0, format type:
1, bit rate: 256000, sample rate: 44100, channels: 2, sample format: 0, native f
ormat type: 0.
[VC] [v09.06.2010] Save \\jnbrook\Videos\Clips\Josh's Phone\qikvideo-2010-09-2608-15-08.avi
[VC] Input audio and video streams: 1, 1. Extended output audio and video stream
s: 1, 1
[VC] Extended regime to convert: yes
[VC] OutputVideoFormat: 1, 1, 720, 540, 25.000000, 3000000
[VC] OutputAudioFormat: 1, 256000, 44100, 2
[VC] OutTimeInterval: 0.000000, -1.000000
[VC] Corrected videoOutputWidth: 720, videoOutputHeight: 432
"C:\Program Files (x86)\Common Files\DVDVideoSoft\Dll\\ffmpeg.exe" -y -i "\\JNBR
OOK\Videos\Clips\Josh's Phone\qikvideo-2010-09-26-08-15-08.3gp" -map 0:0 -map 0:

1 -ss 0.00 -vcodec msmpeg4v2 -r 25.000000 -padtop 54 -padbottom 54 -s 720x432 -b


3000000 -aspect 4:3 -acodec libmp3lame -ab 256000 -ar 44100 -ac 2 -f avi "\\jnb
rook\Videos\Clips\Josh's Phone\qikvideo-2010-09-26-08-15-08.avi"
FFmpeg version r21343-www.DVDVideoSoft.com, Copyright (c) 2000-2010 Fabrice Bell
ard, et al.
built on Jan 26 2010 12:17:27 with gcc 4.2.4
libavutil
50. 7. 0 / 50. 7. 0
libavcodec
52.48. 0 / 52.48. 0
libavformat 52.47. 0 / 52.47. 0
libavdevice 52. 2. 0 / 52. 2. 0
libavfilter
1.17. 0 / 1.17. 0
libswscale
0. 8. 0 / 0. 8. 0
libpostproc 51. 2. 0 / 51. 2. 0
Input #0, mov,mp4,m4a,3gp,3g2,mj2, from '\\JNBROOK\Videos\Clips\Josh's Phone\qik
video-2010-09-26-08-15-08.3gp':
Metadata:
major_brand
: 3gp4
minor_version : 768
compatible_brands: 3gp4mp413gp6
copyright
:
copyright-eng :
Duration: 00:01:13.94, start: 0.000000, bitrate: 439 kb/s
Stream #0.0(eng): Video: mpeg4, yuv420p, 800x480 [PAR 1:1 DAR 5:3], 424 kb/s
, 29.94 fps, 48 tbr, 1k tbn, 48 tbc
Stream #0.1(eng): Audio: libopencore_amrnb, 8000 Hz, 1 channels, s16, 12 kb/
s
Output #0, avi, to '\\jnbrook\Videos\Clips\Josh's Phone\qikvideo-2010-09-26-08-1
5-08.avi':
Stream #0.0(eng): Video: msmpeg4v2, yuv420p, 720x540 [PAR 1:1 DAR 4:3], q=231, 3000 kb/s, 25 tbn, 25 tbc
Stream #0.1(eng): Audio: libmp3lame, 44100 Hz, 2 channels, s16, 256 kb/s
Stream mapping:
Stream #0.0 -> #0.0
Stream #0.1 -> #0.1
Press [q] to stop encoding
[msmpeg4v2 @ 0x1f45110]warning, clipping 1 dct coefficients to -127..127
frame= 14 fps= 0 q=3.3 size=
471kB time=0.72 bitrate=5356.9kbits/s dup=0
frame= 1842 fps= 26 q=2.0 Lsize= 25255kB time=73.90 bitrate=2799.6kbits/s dup=
drop=2
0 drop=372
video:22825kB audio:2309kB global headers:0kB muxing overhead 0.479506%
[VC] Convert Success
[VC] [v08.02.2010] In Open(\\JNBROOK\Videos\Clips\Josh's Phone\qikvideo-2010-0926-09-19-50.3gp)
[VC] FileFormat: mov,mp4,m4a,3gp,3g2,mj2, 81.739000
[VC] Video: mpeg4, 421256, 800x480, 48.000000
[VC] Audio: libopencore_amrnb, 12800, 8000, 1
[VC] Title: Artist: Album: Year: 0 Track: 0
[VC] Out Open = S_OK
[VC] Set output video format, input stream id: 0, id: 0, index: 0, format type:
1, width: 1073742544, height: 540, bit rate: 3000000, frame rate: 25.000000, pix
el format: 0, native format type: 0.
[VC] Set output audio format, input stream id: 1, id: 0, index: 0, format type:
1, bit rate: 256000, sample rate: 44100, channels: 2, sample format: 0, native f
ormat type: 0.
[VC] [v09.06.2010] Save \\jnbrook\Videos\Clips\Josh's Phone\qikvideo-2010-09-2609-19-50.avi

[VC] Input audio and video streams: 1, 1. Extended output audio and video stream
s: 1, 1
[VC] Extended regime to convert: yes
[VC] OutputVideoFormat: 1, 1, 720, 540, 25.000000, 3000000
[VC] OutputAudioFormat: 1, 256000, 44100, 2
[VC] OutTimeInterval: 0.000000, -1.000000
[VC] Corrected videoOutputWidth: 720, videoOutputHeight: 432
"C:\Program Files (x86)\Common Files\DVDVideoSoft\Dll\\ffmpeg.exe" -y -i "\\JNBR
OOK\Videos\Clips\Josh's Phone\qikvideo-2010-09-26-09-19-50.3gp" -map 0:0 -map 0:
1 -ss 0.00 -vcodec msmpeg4v2 -r 25.000000 -padtop 54 -padbottom 54 -s 720x432 -b
3000000 -aspect 4:3 -acodec libmp3lame -ab 256000 -ar 44100 -ac 2 -f avi "\\jnb
rook\Videos\Clips\Josh's Phone\qikvideo-2010-09-26-09-19-50.avi"
FFmpeg version r21343-www.DVDVideoSoft.com, Copyright (c) 2000-2010 Fabrice Bell
ard, et al.
built on Jan 26 2010 12:17:27 with gcc 4.2.4
libavutil
50. 7. 0 / 50. 7. 0
libavcodec
52.48. 0 / 52.48. 0
libavformat 52.47. 0 / 52.47. 0
libavdevice 52. 2. 0 / 52. 2. 0
libavfilter
1.17. 0 / 1.17. 0
libswscale
0. 8. 0 / 0. 8. 0
libpostproc 51. 2. 0 / 51. 2. 0
Input #0, mov,mp4,m4a,3gp,3g2,mj2, from '\\JNBROOK\Videos\Clips\Josh's Phone\qik
video-2010-09-26-09-19-50.3gp':
Metadata:
major_brand
: 3gp4
minor_version : 768
compatible_brands: 3gp4mp413gp6
copyright
:
copyright-eng :
Duration: 00:01:21.73, start: 0.000000, bitrate: 436 kb/s
Stream #0.0(eng): Video: mpeg4, yuv420p, 800x480 [PAR 1:1 DAR 5:3], 421 kb/s
, 29.95 fps, 48 tbr, 1k tbn, 48 tbc
Stream #0.1(eng): Audio: libopencore_amrnb, 8000 Hz, 1 channels, s16, 12 kb/
s
Output #0, avi, to '\\jnbrook\Videos\Clips\Josh's Phone\qikvideo-2010-09-26-09-1
9-50.avi':
Stream #0.0(eng): Video: msmpeg4v2, yuv420p, 720x540 [PAR 1:1 DAR 4:3], q=231, 3000 kb/s, 25 tbn, 25 tbc
Stream #0.1(eng): Audio: libmp3lame, 44100 Hz, 2 channels, s16, 256 kb/s
Stream mapping:
Stream #0.0 -> #0.0
Stream #0.1 -> #0.1
Press [q] to stop encoding
frame= 12 fps= 0 q=2.0 size=
126kB time=0.68 bitrate=1513.0kbits/s dup=0
[VC] Convert Success
drop=2
[VC] [v08.02.2010] In Open(\\JNBROOK\Videos\Clips\Josh's Phone\qikvideo-2010-0926-10-02-51.3gp)
[VC] FileFormat: mov,mp4,m4a,3gp,3g2,mj2, 78.386000
[VC] Video: mpeg4, 421703, 800x480, 48.000000
[VC] Audio: libopencore_amrnb, 12800, 8000, 1
[VC] Title: Artist: Album: Year: 0 Track: 0
[VC] Out Open = S_OK
[VC] Set output video format, input stream id: 0, id: 0, index: 0, format type:
1, width: 1073742544, height: 540, bit rate: 3000000, frame rate: 25.000000, pix
el format: 0, native format type: 0.

[VC] Set output audio format, input stream id: 1, id: 0, index: 0, format type:
1, bit rate: 256000, sample rate: 44100, channels: 2, sample format: 0, native f
ormat type: 0.
[VC] [v09.06.2010] Save \\jnbrook\Videos\Clips\Josh's Phone\qikvideo-2010-09-2610-02-51.avi
[VC] Input audio and video streams: 1, 1. Extended output audio and video stream
s: 1, 1
[VC] Extended regime to convert: yes
[VC] OutputVideoFormat: 1, 1, 720, 540, 25.000000, 3000000
[VC] OutputAudioFormat: 1, 256000, 44100, 2
[VC] OutTimeInterval: 0.000000, -1.000000
[VC] Corrected videoOutputWidth: 720, videoOutputHeight: 432
"C:\Program Files (x86)\Common Files\DVDVideoSoft\Dll\\ffmpeg.exe" -y -i "\\JNBR
OOK\Videos\Clips\Josh's Phone\qikvideo-2010-09-26-10-02-51.3gp" -map 0:0 -map 0:
1 -ss 0.00 -vcodec msmpeg4v2 -r 25.000000 -padtop 54 -padbottom 54 -s 720x432 -b
3000000 -aspect 4:3 -acodec libmp3lame -ab 256000 -ar 44100 -ac 2 -f avi "\\jnb
rook\Videos\Clips\Josh's Phone\qikvideo-2010-09-26-10-02-51.avi"
FFmpeg version r21343-www.DVDVideoSoft.com, Copyright (c) 2000-2010 Fabrice Bell
ard, et al.
built on Jan 26 2010 12:17:27 with gcc 4.2.4
libavutil
50. 7. 0 / 50. 7. 0
libavcodec
52.48. 0 / 52.48. 0
libavformat 52.47. 0 / 52.47. 0
libavdevice 52. 2. 0 / 52. 2. 0
libavfilter
1.17. 0 / 1.17. 0
libswscale
0. 8. 0 / 0. 8. 0
libpostproc 51. 2. 0 / 51. 2. 0
Input #0, mov,mp4,m4a,3gp,3g2,mj2, from '\\JNBROOK\Videos\Clips\Josh's Phone\qik
video-2010-09-26-10-02-51.3gp':
Metadata:
major_brand
: 3gp4
minor_version : 768
compatible_brands: 3gp4mp413gp6
copyright
:
copyright-eng :
Duration: 00:01:18.38, start: 0.000000, bitrate: 437 kb/s
Stream #0.0(eng): Video: mpeg4, yuv420p, 800x480 [PAR 1:1 DAR 5:3], 421 kb/s
, 29.95 fps, 48 tbr, 1k tbn, 48 tbc
Stream #0.1(eng): Audio: libopencore_amrnb, 8000 Hz, 1 channels, s16, 12 kb/
s
Output #0, avi, to '\\jnbrook\Videos\Clips\Josh's Phone\qikvideo-2010-09-26-10-0
2-51.avi':
Stream #0.0(eng): Video: msmpeg4v2, yuv420p, 720x540 [PAR 1:1 DAR 4:3], q=231, 3000 kb/s, 25 tbn, 25 tbc
Stream #0.1(eng): Audio: libmp3lame, 44100 Hz, 2 channels, s16, 256 kb/s
Stream mapping:
Stream #0.0 -> #0.0
Stream #0.1 -> #0.1
Press [q] to stop encoding
[msmpeg4v2 @ 0x25b8ae0]warning, clipping 1 dct coefficients to -127..127
frame= 11 fps= 0 q=2.0 size=
211kB time=0.60 bitrate=2884.5kbits/s dup=0
[VC] Convert Success
drop=1
[VC] [v08.02.2010] In Open(\\JNBROOK\Videos\Clips\Josh's Phone\qikvideo-2010-0926-10-51-26.3gp)

[VC] FileFormat: mov,mp4,m4a,3gp,3g2,mj2, 122.284000


[VC] Video: mpeg4, 481230, 800x480, 48.000000
[VC] Audio: libopencore_amrnb, 12800, 8000, 1
[VC] Title: Artist: Album: Year: 0 Track: 0
[VC] Out Open = S_OK
[VC] Set output video format, input stream id: 0, id: 0, index: 0, format type:
1, width: 1073742544, height: 540, bit rate: 3000000, frame rate: 25.000000, pix
el format: 0, native format type: 0.
[VC] Set output audio format, input stream id: 1, id: 0, index: 0, format type:
1, bit rate: 256000, sample rate: 44100, channels: 2, sample format: 0, native f
ormat type: 0.
[VC] [v09.06.2010] Save \\jnbrook\Videos\Clips\Josh's Phone\qikvideo-2010-09-2610-51-26.avi
[VC] Input audio and video streams: 1, 1. Extended output audio and video stream
s: 1, 1
[VC] Extended regime to convert: yes
[VC] OutputVideoFormat: 1, 1, 720, 540, 25.000000, 3000000
[VC] OutputAudioFormat: 1, 256000, 44100, 2
[VC] OutTimeInterval: 0.000000, -1.000000
[VC] Corrected videoOutputWidth: 720, videoOutputHeight: 432
"C:\Program Files (x86)\Common Files\DVDVideoSoft\Dll\\ffmpeg.exe" -y -i "\\JNBR
OOK\Videos\Clips\Josh's Phone\qikvideo-2010-09-26-10-51-26.3gp" -map 0:0 -map 0:
1 -ss 0.00 -vcodec msmpeg4v2 -r 25.000000 -padtop 54 -padbottom 54 -s 720x432 -b
3000000 -aspect 4:3 -acodec libmp3lame -ab 256000 -ar 44100 -ac 2 -f avi "\\jnb
rook\Videos\Clips\Josh's Phone\qikvideo-2010-09-26-10-51-26.avi"
FFmpeg version r21343-www.DVDVideoSoft.com, Copyright (c) 2000-2010 Fabrice Bell
ard, et al.
built on Jan 26 2010 12:17:27 with gcc 4.2.4
libavutil
50. 7. 0 / 50. 7. 0
libavcodec
52.48. 0 / 52.48. 0
libavformat 52.47. 0 / 52.47. 0
libavdevice 52. 2. 0 / 52. 2. 0
libavfilter
1.17. 0 / 1.17. 0
libswscale
0. 8. 0 / 0. 8. 0
libpostproc 51. 2. 0 / 51. 2. 0
Input #0, mov,mp4,m4a,3gp,3g2,mj2, from '\\JNBROOK\Videos\Clips\Josh's Phone\qik
video-2010-09-26-10-51-26.3gp':
Metadata:
major_brand
: 3gp4
minor_version : 768
compatible_brands: 3gp4mp413gp6
copyright
:
copyright-eng :
Duration: 00:02:02.28, start: 0.000000, bitrate: 496 kb/s
Stream #0.0(eng): Video: mpeg4, yuv420p, 800x480 [PAR 1:1 DAR 5:3], 481 kb/s
, 29.95 fps, 48 tbr, 1k tbn, 48 tbc
Stream #0.1(eng): Audio: libopencore_amrnb, 8000 Hz, 1 channels, s16, 12 kb/
s
Output #0, avi, to '\\jnbrook\Videos\Clips\Josh's Phone\qikvideo-2010-09-26-10-5
1-26.avi':
Stream #0.0(eng): Video: msmpeg4v2, yuv420p, 720x540 [PAR 1:1 DAR 4:3], q=231, 3000 kb/s, 25 tbn, 25 tbc
Stream #0.1(eng): Audio: libmp3lame, 44100 Hz, 2 channels, s16, 256 kb/s
Stream mapping:
Stream #0.0 -> #0.0
Stream #0.1 -> #0.1

Press [q] to stop encoding


[msmpeg4v2 @ 0x70e5d0]warning, clipping 1 dct coefficients to -127..127
frame= 15 fps= 0 q=9.0 size=
10kB time=0.76 bitrate= 105.1kbits/s dup=0
[VC] Convert Success
drop=2
[VC] [v08.02.2010] In Open(\\JNBROOK\Videos\Clips\Josh's Phone\qikvideo-2010-0926-10-54-46.3gp)
[VC] FileFormat: mov,mp4,m4a,3gp,3g2,mj2, 14.267000
[VC] Video: mpeg4, 454397, 800x480, 48.000000
[VC] Audio: libopencore_amrnb, 12800, 8000, 1
[VC] Title: Artist: Album: Year: 0 Track: 0
[VC] Out Open = S_OK
[VC] Set output video format, input stream id: 0, id: 0, index: 0, format type:
1, width: 1073742544, height: 540, bit rate: 3000000, frame rate: 25.000000, pix
el format: 0, native format type: 0.
[VC] Set output audio format, input stream id: 1, id: 0, index: 0, format type:
1, bit rate: 256000, sample rate: 44100, channels: 2, sample format: 0, native f
ormat type: 0.
[VC] [v09.06.2010] Save \\jnbrook\Videos\Clips\Josh's Phone\qikvideo-2010-09-2610-54-46.avi
[VC] Input audio and video streams: 1, 1. Extended output audio and video stream
s: 1, 1
[VC] Extended regime to convert: yes
[VC] OutputVideoFormat: 1, 1, 720, 540, 25.000000, 3000000
[VC] OutputAudioFormat: 1, 256000, 44100, 2
[VC] OutTimeInterval: 0.000000, -1.000000
[VC] Corrected videoOutputWidth: 720, videoOutputHeight: 432
"C:\Program Files (x86)\Common Files\DVDVideoSoft\Dll\\ffmpeg.exe" -y -i "\\JNBR
OOK\Videos\Clips\Josh's Phone\qikvideo-2010-09-26-10-54-46.3gp" -map 0:0 -map 0:
1 -ss 0.00 -vcodec msmpeg4v2 -r 25.000000 -padtop 54 -padbottom 54 -s 720x432 -b
3000000 -aspect 4:3 -acodec libmp3lame -ab 256000 -ar 44100 -ac 2 -f avi "\\jnb
rook\Videos\Clips\Josh's Phone\qikvideo-2010-09-26-10-54-46.avi"
FFmpeg version r21343-www.DVDVideoSoft.com, Copyright (c) 2000-2010 Fabrice Bell
ard, et al.
built on Jan 26 2010 12:17:27 with gcc 4.2.4
libavutil
50. 7. 0 / 50. 7. 0
libavcodec
52.48. 0 / 52.48. 0
libavformat 52.47. 0 / 52.47. 0
libavdevice 52. 2. 0 / 52. 2. 0
libavfilter
1.17. 0 / 1.17. 0
libswscale
0. 8. 0 / 0. 8. 0
libpostproc 51. 2. 0 / 51. 2. 0
Input #0, mov,mp4,m4a,3gp,3g2,mj2, from '\\JNBROOK\Videos\Clips\Josh's Phone\qik
video-2010-09-26-10-54-46.3gp':
Metadata:
major_brand
: 3gp4
minor_version : 768
compatible_brands: 3gp4mp413gp6
copyright
:
copyright-eng :
Duration: 00:00:14.26, start: 0.000000, bitrate: 470 kb/s
Stream #0.0(eng): Video: mpeg4, yuv420p, 800x480 [PAR 1:1 DAR 5:3], 454 kb/s
, 29.65 fps, 48 tbr, 1k tbn, 48 tbc
Stream #0.1(eng): Audio: libopencore_amrnb, 8000 Hz, 1 channels, s16, 12 kb/
s

Output #0, avi, to '\\jnbrook\Videos\Clips\Josh's Phone\qikvideo-2010-09-26-10-5


4-46.avi':
Stream #0.0(eng): Video: msmpeg4v2, yuv420p, 720x540 [PAR 1:1 DAR 4:3], q=231, 3000 kb/s, 25 tbn, 25 tbc
Stream #0.1(eng): Audio: libmp3lame, 44100 Hz, 2 channels, s16, 256 kb/s
Stream mapping:
Stream #0.0 -> #0.0
Stream #0.1 -> #0.1
Press [q] to stop encoding
frame= 14 fps= 0 q=2.0 size=
265kB time=0.76 bitrate=2856.0kbits/s dup=0
[VC] Convert Success
drop=3

====== Assembly Free3GPVideoConverter, ver. 3.7.13.97 started 9/27/2010 ======


1:11:51 AM.078|01|TRC|Enter Controller()
1:11:51 AM.080|01|TRC|propMan['BaseDir'] = C:\Program Files (x86)\DVDVideoSoft\F
ree 3GP Video Converter\
1:11:51 AM.080|01|TRC|before DvsMain.InitializeComponent()
1:11:51 AM.154|01|TRC|==> DvsMain.ctor
1:11:51 AM.308|01|TRC|Code objects listing: AVConverter[DVDVideoSoft.AVConverter
.AVConverterImpl], PresetEditor[DVDVideoSoft.PresetEditor.PresetEditor], Mp3TagW
riter[DVDVideoSoft.AVConverter.Mp3TagWriterImpl], AppExtender[DVDVideoSoft._3GPC
onverterAppExt.AppExtender],
1:11:51 AM.344|01|DBG|==> DvsMain::Init
1:11:51 AM.379|01|DBG|==> Init
1:11:51 AM.413|01|DBG|<== Main_Load
1:11:51 AM.414|01|INF|AppExtender.DoAction(ModifyForm)
1:11:51 AM.418|01|INF|CategorizedByFormatAppExt::AppExtender.DoAction(ModifyForm
)
1:11:51 AM.669|01|INF|AppExtender.DoAction(OnCultureChanged)
1:11:51 AM.670|01|INF|CategorizedByFormatAppExt::AppExtender.DoAction(OnCultureC
hanged)
1:11:51 AM.790|01|DBG|<== Main_Load
1:11:51 AM.867|01|DBG|Try to CheckForUpdates()
1:12:27 AM.250|01|DBG|convertButton_Click
1:12:27 AM.266|01|DBG|Conversion items (output file names):
1:12:27 AM.266|01|DBG|
\\jnbrook\Videos\Clips\Josh's Phone\qikvideo-201
0-09-25-14-44-01.avi
1:12:27 AM.266|01|DBG|
\\jnbrook\Videos\Clips\Josh's Phone\qikvideo-201
0-09-25-14-49-20.avi
1:12:27 AM.266|01|DBG|
\\jnbrook\Videos\Clips\Josh's Phone\qikvideo-201
0-09-25-14-52-54.avi
1:12:27 AM.266|01|DBG|
\\jnbrook\Videos\Clips\Josh's Phone\qikvideo-201
0-09-25-15-18-28.avi
1:12:27 AM.281|01|DBG|<== Convert()
1:12:27 AM.281|01|INF|Preset: High Quality MPEG4 (XviD, DivX compatible) / 720x5
40, 25 fps, 3 Mbps; MP3, 44.1 kHz, 256 Kbps
1:12:27 AM.297|01|DBG|==> Convert()
1:16:49 AM.031|03|INF|worker.CancellationPending is true, cancel the task
1:16:51 AM.075|01|INF|AppExtender.DoAction(SaveState)
1:16:51 AM.075|01|TRC|DvsMain.Dispose(True)
C] [v08.02.2010] In Open(\\JNBROOK\Videos\Clips\Tash's Phone\qikvideo-2010-09-25
-14-44-01.3gp)
[VC] FileFormat: mov,mp4,m4a,3gp,3g2,mj2, 251.098000
[VC] Video: mpeg4, 420819, 800x480, 48.000000
[VC] Audio: libopencore_amrnb, 12800, 8000, 1
[VC] Title: Artist: Album: Year: 0 Track: 0
[VC] Out Open = S_OK
[VC] [v08.02.2010] In Open(\\JNBROOK\Videos\Clips\Tash's Phone\qikvideo-2010-09-

25-14-49-20.3gp)
[VC] FileFormat: mov,mp4,m4a,3gp,3g2,mj2, 100.191000
[VC] Video: mpeg4, 421781, 800x480, 48.000000
[VC] Audio: libopencore_amrnb, 12800, 8000, 1
[VC] Title: Artist: Album: Year: 0 Track: 0
[VC] Out Open = S_OK
[VC] ====== Start time: 9/27/2010, 1:12:12
[VC] Module VC Log Version = 1,6,13,342
[VC] OS Info 6 1 0 0
[VC] [v08.02.2010] In Open(\\JNBROOK\Videos\Clips\Tash's Phone\qikvideo-2010-0925-14-49-20.3gp)
[VC] FileFormat: mov,mp4,m4a,3gp,3g2,mj2, 100.191000
[VC] Video: mpeg4, 421781, 800x480, 48.000000
[VC] Audio: libopencore_amrnb, 12800, 8000, 1
[VC] Title: Artist: Album: Year: 0 Track: 0
[VC] Out Open = S_OK
[VC] ====== Start time: 9/27/2010, 1:12:12
[VC] Module VC Log Version = 1,6,13,342
[VC] OS Info 6 1 0 0
[VC] [v08.02.2010] In Open(\\JNBROOK\Videos\Clips\Tash's Phone\qikvideo-2010-0925-14-49-20.3gp)
[VC] FileFormat: mov,mp4,m4a,3gp,3g2,mj2, 100.191000
[VC] Video: mpeg4, 421781, 800x480, 48.000000
[VC] Audio: libopencore_amrnb, 12800, 8000, 1
[VC] Title: Artist: Album: Year: 0 Track: 0
[VC] Out Open = S_OK
[VC] [v08.02.2010] In Open(\\JNBROOK\Videos\Clips\Tash's Phone\qikvideo-2010-0925-14-52-54.3gp)
[VC] FileFormat: mov,mp4,m4a,3gp,3g2,mj2, 721.785000
[VC] Video: mpeg4, 420277, 800x480, 48.000000
[VC] Audio: libopencore_amrnb, 12800, 8000, 1
[VC] Title: Artist: Album: Year: 0 Track: 0
[VC] Out Open = S_OK
[VC] ====== Start time: 9/27/2010, 1:12:12
[VC] Module VC Log Version = 1,6,13,342
[VC] OS Info 6 1 0 0
[VC] [v08.02.2010] In Open(\\JNBROOK\Videos\Clips\Tash's Phone\qikvideo-2010-0925-14-52-54.3gp)
[VC] FileFormat: mov,mp4,m4a,3gp,3g2,mj2, 721.785000
[VC] Video: mpeg4, 420277, 800x480, 48.000000
[VC] Audio: libopencore_amrnb, 12800, 8000, 1
[VC] Title: Artist: Album: Year: 0 Track: 0
[VC] Out Open = S_OK
[VC] ====== Start time: 9/27/2010, 1:12:12
[VC] Module VC Log Version = 1,6,13,342
[VC] OS Info 6 1 0 0
[VC] [v08.02.2010] In Open(\\JNBROOK\Videos\Clips\Tash's Phone\qikvideo-2010-0925-14-52-54.3gp)
[VC] FileFormat: mov,mp4,m4a,3gp,3g2,mj2, 721.785000
[VC] Video: mpeg4, 420277, 800x480, 48.000000
[VC] Audio: libopencore_amrnb, 12800, 8000, 1
[VC] Title: Artist: Album: Year: 0 Track: 0
[VC] Out Open = S_OK
[VC] [v08.02.2010] In Open(\\JNBROOK\Videos\Clips\Tash's Phone\qikvideo-2010-0925-15-18-28.3gp)
[VC] FileFormat: mov,mp4,m4a,3gp,3g2,mj2, 276.565000

[VC]
[VC]
[VC]
[VC]

Video: mpeg4, 453488, 800x480, 48.000000


Audio: libopencore_amrnb, 12800, 8000, 1
Title: Artist: Album: Year: 0 Track: 0
Out Open = S_OK

[VC] ====== Start time: 9/27/2010, 1:12:12


[VC] Module VC Log Version = 1,6,13,342
[VC] OS Info 6 1 0 0
[VC] [v08.02.2010] In Open(\\JNBROOK\Videos\Clips\Tash's Phone\qikvideo-2010-0925-15-18-28.3gp)
[VC] FileFormat: mov,mp4,m4a,3gp,3g2,mj2, 276.565000
[VC] Video: mpeg4, 453488, 800x480, 48.000000
[VC] Audio: libopencore_amrnb, 12800, 8000, 1
[VC] Title: Artist: Album: Year: 0 Track: 0
[VC] Out Open = S_OK
[VC] ====== Start time: 9/27/2010, 1:12:12
[VC] Module VC Log Version = 1,6,13,342
[VC] OS Info 6 1 0 0
[VC] [v08.02.2010] In Open(\\JNBROOK\Videos\Clips\Tash's Phone\qikvideo-2010-0925-15-18-28.3gp)
[VC] FileFormat: mov,mp4,m4a,3gp,3g2,mj2, 276.565000
[VC] Video: mpeg4, 453488, 800x480, 48.000000
[VC] Audio: libopencore_amrnb, 12800, 8000, 1
[VC] Title: Artist: Album: Year: 0 Track: 0
[VC] Out Open = S_OK
[VC] [v08.02.2010] In Open(\\JNBROOK\Videos\Clips\Tash's Phone\qikvideo-2010-0925-14-44-01.3gp)
[VC] FileFormat: mov,mp4,m4a,3gp,3g2,mj2, 251.098000
[VC] Video: mpeg4, 420819, 800x480, 48.000000
[VC] Audio: libopencore_amrnb, 12800, 8000, 1
[VC] Title: Artist: Album: Year: 0 Track: 0
[VC] Out Open = S_OK
[VC] Set output video format, input stream id: 0, id: 0, index: 0, format type:
1, width: 1073742544, height: 540, bit rate: 3000000, frame rate: 25.000000, pix
el format: 0, native format type: 0.
[VC] Set output audio format, input stream id: 1, id: 0, index: 0, format type:
1, bit rate: 256000, sample rate: 44100, channels: 2, sample format: 0, native f
ormat type: 0.
[VC] [v09.06.2010] Save \\jnbrook\Videos\Clips\Josh's Phone\qikvideo-2010-09-2514-44-01.avi
[VC] Input audio and video streams: 1, 1. Extended output audio and video stream
s: 1, 1
[VC] Extended regime to convert: yes
[VC] OutputVideoFormat: 1, 1, 720, 540, 25.000000, 3000000
[VC] OutputAudioFormat: 1, 256000, 44100, 2
[VC] OutTimeInterval: 0.000000, -1.000000
[VC] Corrected videoOutputWidth: 720, videoOutputHeight: 432
"C:\Program Files (x86)\Common Files\DVDVideoSoft\Dll\\ffmpeg.exe" -y -i "\\JNBR
OOK\Videos\Clips\Tash's Phone\qikvideo-2010-09-25-14-44-01.3gp" -map 0:0 -map 0:
1 -ss 0.00 -vcodec msmpeg4v2 -r 25.000000 -padtop 54 -padbottom 54 -s 720x432 -b
3000000 -aspect 4:3 -acodec libmp3lame -ab 256000 -ar 44100 -ac 2 -f avi "\\jnb
rook\Videos\Clips\Josh's Phone\qikvideo-2010-09-25-14-44-01.avi"
FFmpeg version r21343-www.DVDVideoSoft.com, Copyright (c) 2000-2010 Fabrice Bell
ard, et al.
built on Jan 26 2010 12:17:27 with gcc 4.2.4

libavutil
50. 7. 0 / 50. 7. 0
libavcodec
52.48. 0 / 52.48. 0
libavformat 52.47. 0 / 52.47. 0
libavdevice 52. 2. 0 / 52. 2. 0
libavfilter
1.17. 0 / 1.17. 0
libswscale
0. 8. 0 / 0. 8. 0
libpostproc 51. 2. 0 / 51. 2. 0
Input #0, mov,mp4,m4a,3gp,3g2,mj2, from '\\JNBROOK\Videos\Clips\Tash's Phone\qik
video-2010-09-25-14-44-01.3gp':
Metadata:
major_brand
: 3gp4
minor_version : 768
compatible_brands: 3gp4mp413gp6
copyright
:
copyright-eng :
Duration: 00:04:11.09, start: 0.000000, bitrate: 436 kb/s
Stream #0.0(eng): Video: mpeg4, yuv420p, 800x480 [PAR 1:1 DAR 5:3], 420 kb/s
, 30 fps, 48 tbr, 1k tbn, 48 tbc
Stream #0.1(eng): Audio: libopencore_amrnb, 8000 Hz, 1 channels, s16, 12 kb/
s
Output #0, avi, to '\\jnbrook\Videos\Clips\Josh's Phone\qikvideo-2010-09-25-14-4
4-01.avi':
Stream #0.0(eng): Video: msmpeg4v2, yuv420p, 720x540 [PAR 1:1 DAR 4:3], q=231, 3000 kb/s, 25 tbn, 25 tbc
Stream #0.1(eng): Audio: libmp3lame, 44100 Hz, 2 channels, s16, 256 kb/s
Stream mapping:
Stream #0.0 -> #0.0
Stream #0.1 -> #0.1
Press [q] to stop encoding
[msmpeg4v2 @ 0x7ce0d0]warning, clipping 1 dct coefficients to -127..127
frame= 13 fps= 0 q=1.6 size=
277kB time=0.68 bitrate=3340.9kbits/s dup=0
[VC]
drop=2
Cancel