Sei sulla pagina 1di 10

[HVD] ====== Start time: 10/17/2010, 14:30:57

[HVD] Module HVD Log Version = 2,9,20,325


[HVD] OS Info 5 1 S 2 0
[VC] ====== Start time: 10/17/2010, 14:30:57
[VC] Module VC Log Version = 1,6,11,337
[VC] OS Info 5 1 S 2 0
[YP] ====== Start time: 10/17/2010, 14:31:46
[YP] Module YP Log Version = 2,9,20,325
[YP] OS Info 5 1 S 2 0
[YP] GetYoutubeURLType() = 0, http://www.youtube.com/watch?v=rmz6e6Qrsn4
[YP] GetYoutubeURLType() = 0, http://www.youtube.com/watch?v=rmz6e6Qrsn4
[HVD] WinHttpQueryHeaders() = 12150, 1
[HVD] PreOpen() = 0, 0
[HVD] Open() - ok, 26600882, http://www.youtube.com/watch?v=rmz6e6Qrsn4
[HVD] WinHttp, SaveToFileMT(), Length=26600882
[HVD] SaveToFileMT(), Cancel
[YP] GetYoutubeURLType() = 0, http://www.youtube.com/watch?v=1z_KENCCyYk
[YP] GetYoutubeURLType() = 0, http://www.youtube.com/watch?v=1z_KENCCyYk
[HVD] WinHttpQueryHeaders() = 12150, 1
[HVD] PreOpen() = 0, 0
[HVD] Open() - ok, 15396889, http://www.youtube.com/watch?v=1z_KENCCyYk
[HVD] WinHttp, SaveToFileMT(), Length=15396889
[HVD] SaveToFileMT(), 1 restarted, 0, 1
[HVD] SaveToFileMT(), 1 restarted, 0, 1
[HVD] SaveToFileMT(), 1 restarted, 0, 1
[HVD] SaveToFileMT(), 1 restarted, 0, 1
[HVD] SaveToFileMT(), 1 restarted, 0, 1
[HVD] SaveToFileMT(), closing MT
[HVD] Saving to d:\Mis documentos\DVDVideoSoft\Temp\\video_download_temp_14_33_3
2_843.avi
[HVD] SaveToFilePtr() - ok, 15396889
[VC] [v07.08.2010] In Open(d:\Mis documentos\DVDVideoSoft\Temp\\video_download_t
emp_14_33_32_843.avi)
[VC] FileFormat: mov,mp4,m4a,3gp,3g2,mj2, 200.320064
[VC] Video: h264, 497938, 480x270, 49.990000
[VC] Audio: aac, 114463, 44100, 2
[VC] Title: Artist: Album: Year: 0 Track: 0
[VC] Out Open = S_OK
[VC] [v07.08.2010] Save d:\Mis documentos\DVDVideoSoft\Temp\\video_download_temp
_14_40_38_452.avi
[VC] Input audio and video streams: 1, 1. Extended output audio and video stream
s: 0, 0
[VC] Extended regime to convert: no
[VC] OutputVideoFormat: 1, 1, 480, 270, 0.000000, 900000
[VC] OutputAudioFormat: 1, 0, 0, 0
[VC] OutTimeInterval: 0.000000, -1.000000
[VC] Corrected videoOutputWidth: 480, videoOutputHeight: 270
"C:\Archivos de programa\Archivos comunes\DVDVideoSoft\Dll\\ffmpeg.exe" -y -i "d
:\Mis documentos\DVDVideoSoft\Temp\\video_download_temp_14_33_32_843.avi" -map 0
:1 -map 0:0 -ss 0.00 -vcodec msmpeg4v2 -r 30.000000 -s 480x270 -b 900000 -aspect
16:9 -acodec libmp3lame -ab 128k -f avi "d:\Mis documentos\DVDVideoSoft\Temp\\v
ideo_download_temp_14_40_38_452.avi"
FFmpeg version r21343-www.DVDVideoSoft.com, Copyright (c) 2000-2010 Fabrice Bell
ard, et al.
built on Jan 26 2010 12:17:27 with gcc 4.2.4
libavutil 50. 7. 0 / 50. 7. 0
libavcodec 52.48. 0 / 52.48. 0
libavformat 52.47. 0 / 52.47. 0
libavdevice 52. 2. 0 / 52. 2. 0
libavfilter 1.17. 0 / 1.17. 0
libswscale 0. 8. 0 / 0. 8. 0
libpostproc 51. 2. 0 / 51. 2. 0
Seems stream 1 codec frame rate differs from container frame rate: 49.99 (4999/1
00) -> 25.00 (4999/200)
Input #0, mov,mp4,m4a,3gp,3g2,mj2, from 'd:\Mis documentos\DVDVideoSoft\Temp\\vi
deo_download_temp_14_33_32_843.avi':
Metadata:
major_brand : mp42
minor_version : 0
compatible_brands: isomavc1mp42
Duration: 00:03:20.32, start: 0.000000, bitrate: 614 kb/s
Stream #0.0(und): Audio: aac, 44100 Hz, stereo, s16, 114 kb/s
Stream #0.1(und): Video: h264, yuv420p, 480x270 [PAR 1:1 DAR 16:9], 497 kb/s
, 25 fps, 25 tbr, 24995 tbn, 49.99 tbc
Output #0, avi, to 'd:\Mis documentos\DVDVideoSoft\Temp\\video_download_temp_14_
40_38_452.avi':
Stream #0.0(und): Video: msmpeg4v2, yuv420p, 480x270 [PAR 1:1 DAR 16:9], q=2
-31, 900 kb/s, 30 tbn, 30 tbc
Stream #0.1(und): Audio: libmp3lame, 44100 Hz, stereo, s16, 128 kb/s
Stream mapping:
Stream #0.1 -> #0.0
Stream #0.0 -> #0.1
Press [q] to stop encoding
frame=Convert
[VC] 51 fps=
Success
0 q=2.0 size= 117kB time=1.93 bitrate= 497.7kbits/s

[HVD] ====== Start time: 10/17/2010, 14:49:48


[HVD] Module HVD Log Version = 2,9,20,325
[HVD] OS Info 5 1 S 2 0
[VC] ====== Start time: 10/17/2010, 14:49:48
[VC] Module VC Log Version = 1,6,11,337
[VC] OS Info 5 1 S 2 0
[YP] ====== Start time: 10/17/2010, 14:49:51
[YP] Module YP Log Version = 2,9,20,325
[YP] OS Info 5 1 S 2 0
[YP] GetYoutubeURLType() = 0, http://www.youtube.com/watch?v=I7HahVwYpwo&ob=av3e
[YP] GetYoutubeURLType() = 0, http://www.youtube.com/watch?v=I7HahVwYpwo&ob=av3e
[HVD] WinHttpQueryHeaders() = 12150, 1
[HVD] PreOpen() = 0, 0
[HVD] WinHttpQueryHeaders() = 12150, 1
[HVD] PreOpen() = 0, 0
[HVD] Open() - ok, 20940315, http://www.youtube.com/watch?v=I7HahVwYpwo&ob=av3e
[HVD] WinHttp, SaveToFileMT(), Length=20940315
[HVD] SaveToFileMT(), 1 restarted, 0, 1
[HVD] SaveToFileMT(), 1 restarted, 0, 1
[HVD] SaveToFileMT(), 1 restarted, 0, 1
[HVD] SaveToFileMT(), 1 restarted, 0, 1
[HVD] SaveToFileMT(), 1 restarted, 0, 1
[HVD] SaveToFileMT(), closing MT
[HVD] Saving to d:\Mis documentos\DVDVideoSoft\Temp\\video_download_temp_14_50_2
2_734.avi
[HVD] SaveToFilePtr() - ok, 20940315
[VC] [v07.08.2010] In Open(d:\Mis documentos\DVDVideoSoft\Temp\\video_download_t
emp_14_50_22_734.avi)
[VC] FileFormat: mov,mp4,m4a,3gp,3g2,mj2, 288.200000
[VC] Video: h264, 465136, 480x270, 60.000000
[VC] Audio: aac, 113483, 44100, 2
[VC] Title: Artist: Album: Year: 0 Track: 0
[VC] Out Open = S_OK
[VC] [v07.08.2010] Save d:\Mis documentos\DVDVideoSoft\Temp\\video_download_temp
_15_02_07_859.avi
[VC] Input audio and video streams: 1, 1. Extended output audio and video stream
s: 0, 0
[VC] Extended regime to convert: no
[VC] OutputVideoFormat: 1, 1, 480, 270, 0.000000, 900000
[VC] OutputAudioFormat: 1, 0, 0, 0
[VC] OutTimeInterval: 0.000000, -1.000000
[VC] Corrected videoOutputWidth: 480, videoOutputHeight: 270
"C:\Archivos de programa\Archivos comunes\DVDVideoSoft\Dll\\ffmpeg.exe" -y -i "d
:\Mis documentos\DVDVideoSoft\Temp\\video_download_temp_14_50_22_734.avi" -map 0
:1 -map 0:0 -ss 0.00 -vcodec msmpeg4v2 -r 30.000000 -s 480x270 -b 900000 -aspect
16:9 -acodec libmp3lame -ab 128k -f avi "d:\Mis documentos\DVDVideoSoft\Temp\\v
ideo_download_temp_15_02_07_859.avi"
FFmpeg version r21343-www.DVDVideoSoft.com, Copyright (c) 2000-2010 Fabrice Bell
ard, et al.
built on Jan 26 2010 12:17:27 with gcc 4.2.4
libavutil 50. 7. 0 / 50. 7. 0
libavcodec 52.48. 0 / 52.48. 0
libavformat 52.47. 0 / 52.47. 0
libavdevice 52. 2. 0 / 52. 2. 0
libavfilter 1.17. 0 / 1.17. 0
libswscale 0. 8. 0 / 0. 8. 0
libpostproc 51. 2. 0 / 51. 2. 0
Seems stream 1 codec frame rate differs from container frame rate: 60.00 (60/1)
-> 30.00 (30/1)
Input #0, mov,mp4,m4a,3gp,3g2,mj2, from 'd:\Mis documentos\DVDVideoSoft\Temp\\vi
deo_download_temp_14_50_22_734.avi':
Metadata:
major_brand : mp42
minor_version : 0
compatible_brands: isomavc1mp42
Duration: 00:04:48.20, start: 0.000000, bitrate: 581 kb/s
Stream #0.0(und): Audio: aac, 44100 Hz, stereo, s16, 113 kb/s
Stream #0.1(und): Video: h264, yuv420p, 480x270 [PAR 1:1 DAR 16:9], 465 kb/s
, 30 fps, 30 tbr, 30k tbn, 60 tbc
Output #0, avi, to 'd:\Mis documentos\DVDVideoSoft\Temp\\video_download_temp_15_
02_07_859.avi':
Stream #0.0(und): Video: msmpeg4v2, yuv420p, 480x270 [PAR 1:1 DAR 16:9], q=2
-31, 900 kb/s, 30 tbn, 30 tbc
Stream #0.1(und): Audio: libmp3lame, 44100 Hz, stereo, s16, 128 kb/s
Stream mapping:
Stream #0.1 -> #0.0
Stream #0.0 -> #0.1
Press [q] to stop encoding
frame=Convert
[VC] 107
51 fps=105
fps=
Success
0 q=2.0 size= 163kB
65kB time=3.57
time=1.70 bitrate= 375.5kbits/s
313.5kbits/s
[HVD] ====== Start time: 10/17/2010, 15:6:18
[HVD] Module HVD Log Version = 2,9,20,325
[HVD] OS Info 5 1 S 2 0
[VC] ====== Start time: 10/17/2010, 15:6:19
[VC] Module VC Log Version = 1,6,11,337
[VC] OS Info 5 1 S 2 0
[YP] ====== Start time: 10/17/2010, 15:6:28
[YP] Module YP Log Version = 2,9,20,325
[YP] OS Info 5 1 S 2 0
[YP] GetYoutubeURLType() = 0, http://www.youtube.com/watch?v=EX8sjbsJj-I&hd=1
[YP] GetYoutubeURLType() = 0, http://www.youtube.com/watch?v=EX8sjbsJj-I&hd=1
[HVD] WinHttpQueryHeaders() = 12150, 1
[HVD] PreOpen() = 0, 0
[HVD] WinHttpQueryHeaders() = 12150, 1
[HVD] PreOpen() = 0, 0
[HVD] Open() - ok, 16698488, http://www.youtube.com/watch?v=EX8sjbsJj-I&hd=1
[HVD] WinHttp, SaveToFileMT(), Length=16698488
[HVD] SaveToFileMT(), 1 restarted, 0, 1
[HVD] SaveToFileMT(), 1 restarted, 0, 1
[HVD] SaveToFileMT(), 1 restarted, 0, 1
[HVD] SaveToFileMT(), 1 restarted, 0, 1
[HVD] SaveToFileMT(), 1 restarted, 0, 1
[HVD] SaveToFileMT(), closing MT
[HVD] Saving to d:\Mis documentos\DVDVideoSoft\Temp\\video_download_temp_15_08_0
7_780.avi
[HVD] SaveToFilePtr() = Cancel
[HVD] ====== Start time: 10/18/2010, 10:49:13
[HVD] Module HVD Log Version = 2,9,20,325
[HVD] OS Info 5 1 S 2 0
[VC] ====== Start time: 10/18/2010, 10:49:13
[VC] Module VC Log Version = 1,6,11,337
[VC] OS Info 5 1 S 2 0
[YP] ====== Start time: 10/18/2010, 10:56:0
[YP] Module YP Log Version = 2,9,20,325
[YP] OS Info 5 1 S 2 0
[YP] GetYoutubeURLType() = 0, http://www.youtube.com/watch?v=RSdKmX2BH7o&ob=av3e
[YP] GetYoutubeURLType() = 0, http://www.youtube.com/watch?v=RSdKmX2BH7o&ob=av3e
[HVD] WinHttpQueryHeaders() = 12150, 1
[HVD] PreOpen() = 0, 0
[HVD] WinHttpQueryHeaders() = 12150, 1
[HVD] PreOpen() = 0, 0
[HVD] WinHttpQueryHeaders() = 12150, 1
[HVD] PreOpen() = 0, 0
[HVD] WinHttpQueryHeaders() = 12150, 1
[HVD] PreOpen() = 0, 0
[HVD] WinHttpQueryHeaders() = 12150, 1
[HVD] PreOpen() = 0, 0
[HVD] Open() - ok, 47087536, http://www.youtube.com/watch?v=RSdKmX2BH7o&ob=av3e
[HVD] WinHttp, SaveToFileMT(), Length=47087536
[HVD] SaveToFileMT(), 1 restarted, 0, 1
[HVD] SaveToFileMT(), 1 restarted, 0, 1
[HVD] SaveToFileMT(), 1 restarted, 0, 1
[HVD] SaveToFileMT(), 1 restarted, 0, 1
[HVD] SaveToFileMT(), 1 restarted, 0, 1
[HVD] SaveToFileMT(), closing MT
[HVD] Saving to d:\Mis documentos\DVDVideoSoft\Temp\\video_download_temp_10_56_5
4_907.mp4
[HVD] SaveToFilePtr() - ok, 47087536
[VC] [v07.08.2010] In Open(d:\Mis documentos\DVDVideoSoft\Temp\\video_download_t
emp_10_56_54_907.mp4)
[VC] FileFormat: flv, 282.849000
[VC] Video: h264, 1230091, 854x480, 59.926000
[VC] Audio: aac, 0, 44100, 2
[VC] Title: Artist: Album: Year: 0 Track: 0
[VC] Out Open = S_OK
[VC] [v07.08.2010] Save d:\Mis documentos\DVDVideoSoft\Temp\\video_download_temp
_11_08_00_282.mp4
[VC] Input audio and video streams: 1, 1. Extended output audio and video stream
s: 0, 0
[VC] Extended regime to convert: no
[VC] OutputVideoFormat: 1, 0, 854, 480, 0.000000, 900000
[VC] OutputAudioFormat: 0, 0, 0, 0
[VC] OutTimeInterval: 0.000000, -1.000000
[VC] Corrected videoOutputWidth: 854, videoOutputHeight: 480
"C:\Archivos de programa\Archivos comunes\DVDVideoSoft\Dll\\ffmpeg.exe" -y -i "d
:\Mis documentos\DVDVideoSoft\Temp\\video_download_temp_10_56_54_907.mp4" -map 0
:0 -map 0:1 -ss 0.00 -vcodec mpeg4 -r 30.000000 -s 854x480 -b 900000 -aspect 427
:240 -acodec libfaac -ab 128k -f mp4 -threads 1 "d:\Mis documentos\DVDVideoSoft\
Temp\\video_download_temp_11_08_00_282.mp4"
FFmpeg version r21343-www.DVDVideoSoft.com, Copyright (c) 2000-2010 Fabrice Bell
ard, et al.
built on Jan 26 2010 12:17:27 with gcc 4.2.4
libavutil 50. 7. 0 / 50. 7. 0
libavcodec 52.48. 0 / 52.48. 0
libavformat 52.47. 0 / 52.47. 0
libavdevice 52. 2. 0 / 52. 2. 0
libavfilter 1.17. 0 / 1.17. 0
libswscale 0. 8. 0 / 0. 8. 0
libpostproc 51. 2. 0 / 51. 2. 0
[flv @ 0xa80050]Estimating duration from bitrate, this may be inaccurate
Seems stream 0 codec frame rate differs from container frame rate: 59.93 (29963/
500) -> 29.92 (359/12)
Input #0, flv, from 'd:\Mis documentos\DVDVideoSoft\Temp\\video_download_temp_10
_56_54_907.mp4':
Metadata:
duration : 283
starttime : 0
totalduration : 283
width : 854
height : 480
videodatarate : 1201
audiodatarate : 122
totaldatarate : 1330
framerate : 30
bytelength : 47087536
canseekontime : true
sourcedata : BC86E7404HH1287417416390531
purl :
pmsg :
Duration: 00:04:42.84, start: 0.000000, bitrate: 1230 kb/s
Stream #0.0: Video: h264, yuv420p, 854x480 [PAR 1:1 DAR 427:240], 1230 kb/s,
58.82 fps, 29.92 tbr, 1k tbn, 59.93 tbc
Stream #0.1: Audio: aac, 44100 Hz, stereo, s16
Output #0, mp4, to 'd:\Mis documentos\DVDVideoSoft\Temp\\video_download_temp_11_
08_00_282.mp4':
Stream #0.0: Video: mpeg4, yuv420p, 854x480 [PAR 1:1 DAR 427:240], q=2-31, 9
00 kb/s, 30 tbn, 30 tbc
Stream #0.1: Audio: aac, 44100 Hz, stereo, s16, 128 kb/s
Stream mapping:
Stream #0.0 -> #0.0
Stream #0.1 -> #0.1
Press [q] to stop encoding
frame=Convert
[VC] 22 fps=
38 Success
370 q=2.0 size= 153kB
54kB time=1.18
time=0.70 bitrate=1056.6kbits/s
bitrate= 639.4kbits/s

[YP] GetYoutubeURLType() = -1, http://www.redtube.com/redtube/asian


[YP] GetYoutubeURLType() = -1, http://www.redtube.com/redtube/asian
[YP] ====== Start time: 10/18/2010, 11:12:59
[YP] Module YP Log Version = 2,9,20,325
[YP] OS Info 5 1 S 2 0
[HVD] ====== Start time: 10/18/2010, 11:13:1
[HVD] Module HVD Log Version = 2,9,20,325
[HVD] OS Info 5 1 S 2 0
[YP] GetYoutubeURLType() = -1, http://i1.ytimg.com/vi/DdT-r3JZj04/default.jpg
[YP] GetYoutubeURLType() = -1, http://i1.ytimg.com/vi/DdT-r3JZj04/default.jpg
[YP] ====== Start time: 10/18/2010, 11:15:5
[YP] Module YP Log Version = 2,9,20,325
[YP] OS Info 5 1 S 2 0
[YP] GetYoutubeURLType() = 0, http://www.youtube.com/watch?v=MQVAGoUl4v4
[YP] GetYoutubeURLType() = 0, http://www.youtube.com/watch?v=MQVAGoUl4v4
[HVD] WinHttpReceiveResponse() = 12002
[HVD] ====== Start time: 10/19/2010, 14:3:24
[HVD] Module HVD Log Version = 2,9,20,325
[HVD] OS Info 5 1 S 2 0
[VC] ====== Start time: 10/19/2010, 14:3:30
[VC] Module VC Log Version = 1,6,11,337
[VC] OS Info 5 1 S 2 0
[YP] ====== Start time: 10/19/2010, 14:9:27
[YP] Module YP Log Version = 2,9,20,325
[YP] OS Info 5 1 S 2 0
[YP] GetYoutubeURLType() = 1, http://www.youtube.com/view_play_list?p=3C78E05F83
550EC1&playnext=1&v=8Ef8dpz6_eA
[YP] GetYoutubeURLType() = 1, http://www.youtube.com/view_play_list?p=3C78E05F83
550EC1&playnext=1&v=8Ef8dpz6_eA
[YP] ====== Start time: 10/19/2010, 14:9:27
[YP] Module YP Log Version = 2,9,20,325
[YP] OS Info 5 1 S 2 0
[YP] HttpQueryInfo() = 12150, 1
[YP] HttpQueryInfo() = 12150, 1
[YP] HttpQueryInfo() = 12150, 1
[YP] HttpQueryInfo() = 12150, 1
[HVD] ====== Start time: 10/19/2010, 14:9:44
[HVD] Module HVD Log Version = 2,9,20,325
[HVD] OS Info 5 1 S 2 0
[HVD] WinHttpQueryHeaders() = 12150, 1
[HVD] PreOpen() = 0, 0
[YP] Open() = 0
[YP] GetYoutubeURLType() = 1, http://www.youtube.com/view_play_list?p=3C78E05F83
550EC1&playnext=1&v=8Ef8dpz6_eA
[YP] GetYoutubeURLType() = 1, http://www.youtube.com/view_play_list?p=3C78E05F83
550EC1&playnext=1&v=8Ef8dpz6_eA
[YP] ====== Start time: 10/19/2010, 14:10:19
[YP] Module YP Log Version = 2,9,20,325
[YP] OS Info 5 1 S 2 0
[YP] HttpQueryInfo() = 12150, 1
[YP] HttpQueryInfo() = 12150, 1
[HVD] ====== Start time: 10/19/2010, 14:10:31
[HVD] Module HVD Log Version = 2,9,20,325
[HVD] OS Info 5 1 S 2 0
[HVD] WinHttpQueryHeaders() = 12150, 1
[HVD] PreOpen() = 0, 0
[YP] Open() = 0
[HVD] WinHttpQueryHeaders() = 12150, 1
[HVD] PreOpen() = 0, 0
[HVD] WinHttpQueryHeaders() = 12150, 1
[HVD] PreOpen() = 0, 0
[HVD] Open() - ok, 22903796, http://www.youtube.com/watch?v=S3WDKXq36WI&feature=
youtube_gdata
[HVD] WinHttp, SaveToFileMT(), Length=22903796
[HVD] SaveToFileMT(), Saved d:\Mis documentos\DVDVideoSoft\Temp\\video_download_
temp_14_11_05_781.avi
[VC] [v07.08.2010] In Open(d:\Mis documentos\DVDVideoSoft\Temp\\video_download_t
emp_14_11_05_781.avi)
[VC] FileFormat: flv, 198.616000
[VC] Video: h264, 820640, 640x480, 59.834000
[VC] Audio: aac, 0, 44100, 2
[VC] Title: Artist: Album: Year: 0 Track: 0
[VC] Out Open = S_OK
[VC] [v07.08.2010] Save d:\Mis documentos\DVDVideoSoft\Temp\\video_download_temp
_14_16_46_250.avi
[VC] Input audio and video streams: 1, 1. Extended output audio and video stream
s: 0, 0
[VC] Extended regime to convert: no
[VC] OutputVideoFormat: 1, 1, 640, 480, 0.000000, 900000
[VC] OutputAudioFormat: 1, 0, 0, 0
[VC] OutTimeInterval: 0.000000, -1.000000
[VC] Corrected videoOutputWidth: 640, videoOutputHeight: 480
"C:\Archivos de programa\Archivos comunes\DVDVideoSoft\Dll\\ffmpeg.exe" -y -i "d
:\Mis documentos\DVDVideoSoft\Temp\\video_download_temp_14_11_05_781.avi" -map 0
:0 -map 0:1 -ss 0.00 -vcodec msmpeg4v2 -r 30.000000 -s 640x480 -b 900000 -aspect
4:3 -acodec libmp3lame -ab 128k -f avi "d:\Mis documentos\DVDVideoSoft\Temp\\vi
deo_download_temp_14_16_46_250.avi"
FFmpeg version r21343-www.DVDVideoSoft.com, Copyright (c) 2000-2010 Fabrice Bell
ard, et al.
built on Jan 26 2010 12:17:27 with gcc 4.2.4
libavutil 50. 7. 0 / 50. 7. 0
libavcodec 52.48. 0 / 52.48. 0
libavformat 52.47. 0 / 52.47. 0
libavdevice 52. 2. 0 / 52. 2. 0
libavfilter 1.17. 0 / 1.17. 0
libswscale 0. 8. 0 / 0. 8. 0
libpostproc 51. 2. 0 / 51. 2. 0
[flv @ 0xa80050]Estimating duration from bitrate, this may be inaccurate
Seems stream 0 codec frame rate differs from container frame rate: 59.83 (29917/
500) -> 59.75 (239/4)
Input #0, flv, from 'd:\Mis documentos\DVDVideoSoft\Temp\\video_download_temp_14
_11_05_781.avi':
Metadata:
duration : 199
starttime : 0
totalduration : 199
width : 640
height : 480
videodatarate : 801
audiodatarate : 112
totaldatarate : 920
framerate : 30
bytelength : 22903796
canseekontime : true
sourcedata : BC86E7405HH1287515477220547
purl :
pmsg :
Duration: 00:03:18.61, start: 0.000000, bitrate: 820 kb/s
Stream #0.0: Video: h264, yuv420p, 640x480 [PAR 1:1 DAR 4:3], 820 kb/s, 58.8
2 fps, 59.75 tbr, 1k tbn, 59.83 tbc
Stream #0.1: Audio: aac, 44100 Hz, stereo, s16
Output #0, avi, to 'd:\Mis documentos\DVDVideoSoft\Temp\\video_download_temp_14_
16_46_250.avi':
Stream #0.0: Video: msmpeg4v2, yuv420p, 640x480 [PAR 1:1 DAR 4:3], q=2-31, 9
00 kb/s, 30 tbn, 30 tbc
Stream #0.1: Audio: libmp3lame, 44100 Hz, stereo, s16, 128 kb/s
Stream mapping:
Stream #0.0 -> #0.0
Stream #0.1 -> #0.1
Press [q] to stop encoding
frame=Convert
[VC] 14 fps=
41
71 Success
400 q=5.3
46 q=2.3 size=
q=4.1 270kB
416kB
80kB time=2.22
time=0.34 bitrate=1534.7kbits/s
time=1.28 bitrate=1936.4kbits/s
bitrate=1729.0kbits/s

[HVD] WinHttpQueryHeaders() = 12150, 1


[HVD] PreOpen() = 0, 0
[HVD] WinHttpQueryHeaders() = 12150, 1
[HVD] PreOpen() = 0, 0
[HVD] Open() - ok, 36425645, http://www.youtube.com/watch?v=pjVhoDpezUA&feature=
youtube_gdata
[HVD] WinHttp, SaveToFileMT(), Length=36425645
[HVD] SaveToFileMT(), 1 restarted, 0, 1
[HVD] SaveToFileMT(), 1 restarted, 0, 1
[HVD] SaveToFileMT(), 1 restarted, 0, 1
[HVD] SaveToFileMT(), 1 restarted, 0, 1
[HVD] SaveToFileMT(), 1 restarted, 0, 1
[HVD] SaveToFileMT(), closing MT
[HVD] Saving to d:\Mis documentos\DVDVideoSoft\Temp\\video_download_temp_14_19_0
8_187.avi
[HVD] SaveToFilePtr() = Cancel
[YP] GetYoutubeURLType() = 0, http://www.youtube.com/watch?v=Yk2YoxzSKkw
[YP] GetYoutubeURLType() = 0, http://www.youtube.com/watch?v=Yk2YoxzSKkw
[HVD] WinHttpQueryHeaders() = 12150, 1
[HVD] PreOpen() = 0, 0
[HVD] Open() - ok, 55744161, http://www.youtube.com/watch?v=Yk2YoxzSKkw
[HVD] WinHttp, SaveToFileMT(), Length=55744161
[HVD] SaveToFileMT(), Saved d:\Mis documentos\DVDVideoSoft\Temp\\video_download_
temp_14_27_02_140.avi
[VC] [v07.08.2010] In Open(d:\Mis documentos\DVDVideoSoft\Temp\\video_download_t
emp_14_27_02_140.avi)
[VC] FileFormat: mov,mp4,m4a,3gp,3g2,mj2, 209.709500
[VC] Video: h264, 1998405, 1280x714, 59.940000
[VC] Audio: aac, 125454, 44100, 2
[VC] Title: Artist: Album: Year: 0 Track: 0
[VC] Out Open = S_OK
[VC] [v07.08.2010] Save d:\Mis documentos\DVDVideoSoft\Temp\\video_download_temp
_14_38_52_875.avi
[VC] Input audio and video streams: 1, 1. Extended output audio and video stream
s: 0, 0
[VC] Extended regime to convert: no
[VC] OutputVideoFormat: 1, 1, 1280, 714, 0.000000, 2300000
[VC] OutputAudioFormat: 1, 0, 0, 0
[VC] OutTimeInterval: 0.000000, -1.000000
[VC] Corrected videoOutputWidth: 1280, videoOutputHeight: 714
"C:\Archivos de programa\Archivos comunes\DVDVideoSoft\Dll\\ffmpeg.exe" -y -i "d
:\Mis documentos\DVDVideoSoft\Temp\\video_download_temp_14_27_02_140.avi" -map 0
:1 -map 0:0 -ss 0.00 -vcodec msmpeg4v2 -r 30.000000 -s 1280x714 -b 2300000 -aspe
ct 640:357 -acodec libmp3lame -ab 128k -f avi "d:\Mis documentos\DVDVideoSoft\Te
mp\\video_download_temp_14_38_52_875.avi"
FFmpeg version r21343-www.DVDVideoSoft.com, Copyright (c) 2000-2010 Fabrice Bell
ard, et al.
built on Jan 26 2010 12:17:27 with gcc 4.2.4
libavutil 50. 7. 0 / 50. 7. 0
libavcodec 52.48. 0 / 52.48. 0
libavformat 52.47. 0 / 52.47. 0
libavdevice 52. 2. 0 / 52. 2. 0
libavfilter 1.17. 0 / 1.17. 0
libswscale 0. 8. 0 / 0. 8. 0
libpostproc 51. 2. 0 / 51. 2. 0
Seems stream 1 codec frame rate differs from container frame rate: 59.94 (2997/5
0) -> 29.97 (30000/1001)
Input #0, mov,mp4,m4a,3gp,3g2,mj2, from 'd:\Mis documentos\DVDVideoSoft\Temp\\vi
deo_download_temp_14_27_02_140.avi':
Metadata:
major_brand : mp42
minor_version : 0
compatible_brands: isomavc1mp42
Duration: 00:03:29.70, start: 0.000000, bitrate: 2126 kb/s
Stream #0.0(und): Audio: aac, 44100 Hz, stereo, s16, 125 kb/s
Stream #0.1(und): Video: h264, yuv420p, 1280x714 [PAR 1:1 DAR 640:357], 1998
kb/s, 29.97 fps, 29.97 tbr, 30k tbn, 59.94 tbc
Output #0, avi, to 'd:\Mis documentos\DVDVideoSoft\Temp\\video_download_temp_14_
38_52_875.avi':
Stream #0.0(und): Video: msmpeg4v2, yuv420p, 1280x714 [PAR 1:1 DAR 640:357],
q=2-31, 2300 kb/s, 30 tbn, 30 tbc
Stream #0.1(und): Audio: libmp3lame, 44100 Hz, stereo, s16, 128 kb/s
Stream mapping:
Stream #0.1 -> #0.0
Stream #0.0 -> #0.1
Press [q] to stop encoding
[msmpeg4v2 @ 0xac9950]warning, clipping 1 dct coefficients to -127..127
frame=Convert
[VC] 209 fps=
31 Success
190 q=2.0 size=
20 172kB
268kB
81kB time=1.03
time=0.30 bitrate=2120.9kbits/s
time=0.67 bitrate=2202.4kbits/s
bitrate=2115.8kbits/s
[YP] GetYoutubeURLType() = 0, http://www.youtube.com/watch?v=dwfKZ-1jyiw&ob=av3e
[YP] GetYoutubeURLType() = 0, http://www.youtube.com/watch?v=dwfKZ-1jyiw&ob=av3e
[HVD] WinHttpQueryHeaders() = 12150, 1
[HVD] PreOpen() = 0, 0
[HVD] WinHttpQueryHeaders() = 12150, 1
[HVD] PreOpen() = 0, 0
[HVD] WinHttpQueryHeaders() = 12150, 1
[HVD] PreOpen() = 0, 0
[HVD] Open() - ok, 36921329, http://www.youtube.com/watch?v=dwfKZ-1jyiw&ob=av3e
[HVD] WinHttp, SaveToFileMT(), Length=36921329
[HVD] SaveToFileMT(), 1 restarted, 0, 1
[HVD] SaveToFileMT(), 1 restarted, 0, 1
[HVD] SaveToFileMT(), 1 restarted, 0, 1
[HVD] SaveToFileMT(), 1 restarted, 0, 1
[HVD] SaveToFileMT(), 1 restarted, 0, 1
[HVD] SaveToFileMT(), closing MT
[HVD] Saving to d:\Mis documentos\DVDVideoSoft\Temp\\video_download_temp_14_47_0
0_343.avi
[HVD] ====== Start time: 10/19/2010, 14:49:51
[HVD] Module HVD Log Version = 2,9,20,325
[HVD] OS Info 5 1 S 2 0
[VC] ====== Start time: 10/19/2010, 14:49:51
[VC] Module VC Log Version = 1,6,11,337
[VC] OS Info 5 1 S 2 0
[YP] ====== Start time: 10/19/2010, 14:50:5
[YP] Module YP Log Version = 2,9,20,325
[YP] OS Info 5 1 S 2 0
[YP] GetYoutubeURLType() = 0, http://www.youtube.com/watch?v=QvhsUA1n5Ag
[YP] GetYoutubeURLType() = 0, http://www.youtube.com/watch?v=QvhsUA1n5Ag
[HVD] WinHttpQueryHeaders() = 12150, 1
[HVD] PreOpen() = 0, 0
[HVD] Open() - ok, 59097500, http://www.youtube.com/watch?v=QvhsUA1n5Ag
[HVD] WinHttp, SaveToFileMT(), Length=59097500
[HVD] SaveToFileMT(), 1 restarted, 0, 1
[HVD] SaveToFileMT(), 1 restarted, 0, 1
[HVD] SaveToFileMT(), 1 restarted, 0, 1
[HVD] SaveToFileMT(), 1 restarted, 0, 1
[HVD] SaveToFileMT(), 1 restarted, 0, 1
[HVD] SaveToFileMT(), closing MT
[HVD] Saving to d:\Mis documentos\DVDVideoSoft\FreeYouTubeDownload\YouTube
- Juan Magan - Mariah.mp4
[HVD] SaveToFilePtr() - ok, 59097500